  0
SECTION
  2
HEADER
  9
$ACADVER
  1
AC1015
  9
$ACADMAINTVER
 70
    18
  9
$DWGCODEPAGE
  3
ANSI_1252
  9
$INSBASE
 10
0.0
 20
0.0
 30
0.0
  9
$EXTMIN
 10
0.0
 20
0.0
 30
0.0
  9
$EXTMAX
 10
105.0
 20
148.5
 30
0.0
  9
$LIMMIN
 10
0.0
 20
0.0
  9
$LIMMAX
 10
105.0
 20
148.5
  9
$ORTHOMODE
 70
     0
  9
$REGENMODE
 70
     1
  9
$FILLMODE
 70
     1
  9
$QTEXTMODE
 70
     0
  9
$MIRRTEXT
 70
     0
  9
$LTSCALE
 40
0.5
  9
$ATTMODE
 70
     1
  9
$TEXTSIZE
 40
0.2
  9
$TRACEWID
 40
0.05
  9
$TEXTSTYLE
  7
Standard
  9
$CLAYER
  8
0
  9
$CELTYPE
  6
ByLayer
  9
$CECOLOR
 62
   256
  9
$CELTSCALE
 40
1.0
  9
$DISPSILH
 70
     0
  9
$DIMSCALE
 40
1.0
  9
$DIMASZ
 40
1.799999999999999
  9
$DIMEXO
 40
0.0625
  9
$DIMDLI
 40
0.38
  9
$DIMRND
 40
0.0
  9
$DIMDLE
 40
0.0
  9
$DIMEXE
 40
0.18
  9
$DIMTP
 40
0.0
  9
$DIMTM
 40
0.0
  9
$DIMTXT
 40
1.799999999999999
  9
$DIMCEN
 40
0.09
  9
$DIMTSZ
 40
0.0
  9
$DIMTOL
 70
     0
  9
$DIMLIM
 70
     0
  9
$DIMTIH
 70
     1
  9
$DIMTOH
 70
     1
  9
$DIMSE1
 70
     0
  9
$DIMSE2
 70
     0
  9
$DIMTAD
 70
     0
  9
$DIMZIN
 70
     0
  9
$DIMBLK
  1

  9
$DIMASO
 70
     1
  9
$DIMSHO
 70
     1
  9
$DIMPOST
  1

  9
$DIMAPOST
  1

  9
$DIMALT
 70
     0
  9
$DIMALTD
 70
     2
  9
$DIMALTF
 40
25.4
  9
$DIMLFAC
 40
1.0
  9
$DIMTOFL
 70
     0
  9
$DIMTVP
 40
0.0
  9
$DIMTIX
 70
     0
  9
$DIMSOXD
 70
     0
  9
$DIMSAH
 70
     0
  9
$DIMBLK1
  1

  9
$DIMBLK2
  1

  9
$DIMSTYLE
  2
Standard
  9
$DIMCLRD
 70
     0
  9
$DIMCLRE
 70
     0
  9
$DIMCLRT
 70
     0
  9
$DIMTFAC
 40
1.0
  9
$DIMGAP
 40
0.09
  9
$DIMJUST
 70
     0
  9
$DIMSD1
 70
     0
  9
$DIMSD2
 70
     0
  9
$DIMTOLJ
 70
     1
  9
$DIMTZIN
 70
     0
  9
$DIMALTZ
 70
     0
  9
$DIMALTTZ
 70
     0
  9
$DIMUPT
 70
     0
  9
$DIMDEC
 70
     4
  9
$DIMTDEC
 70
     4
  9
$DIMALTU
 70
     2
  9
$DIMALTTD
 70
     2
  9
$DIMTXSTY
  7
Standard
  9
$DIMAUNIT
 70
     0
  9
$DIMADEC
 70
     0
  9
$DIMALTRND
 40
0.0
  9
$DIMAZIN
 70
     0
  9
$DIMDSEP
 70
    46
  9
$DIMATFIT
 70
     3
  9
$DIMFRAC
 70
     0
  9
$DIMLDRBLK
  1

  9
$DIMLUNIT
 70
     2
  9
$DIMLWD
 70
    -2
  9
$DIMLWE
 70
    -2
  9
$DIMTMOVE
 70
     0
  9
$LUNITS
 70
     2
  9
$LUPREC
 70
     4
  9
$SKETCHINC
 40
0.1
  9
$FILLETRAD
 40
0.0
  9
$AUNITS
 70
     0
  9
$AUPREC
 70
     0
  9
$MENU
  1
.
  9
$ELEVATION
 40
0.0
  9
$PELEVATION
 40
0.0
  9
$THICKNESS
 40
0.0
  9
$LIMCHECK
 70
     0
  9
$CHAMFERA
 40
0.0
  9
$CHAMFERB
 40
0.0
  9
$CHAMFERC
 40
0.0
  9
$CHAMFERD
 40
0.0
  9
$SKPOLY
 70
     0
  9
$TDCREATE
 40
2457218.095069271
  9
$TDUCREATE
 40
2457218.011735938
  9
$TDUPDATE
 40
2457218.095069271
  9
$TDUUPDATE
 40
2457218.011735938
  9
$TDINDWG
 40
0.0001961806
  9
$TDUSRTIMER
 40
0.0001961806
  9
$USRTIMER
 70
     1
  9
$ANGBASE
 50
0.0
  9
$ANGDIR
 70
     0
  9
$PDMODE
 70
     0
  9
$PDSIZE
 40
0.0
  9
$PLINEWID
 40
0.0
  9
$SPLFRAME
 70
     0
  9
$SPLINETYPE
 70
     6
  9
$SPLINESEGS
 70
     8
  9
$HANDSEED
  5
1011
  9
$SURFTAB1
 70
     6
  9
$SURFTAB2
 70
     6
  9
$SURFTYPE
 70
     6
  9
$SURFU
 70
     6
  9
$SURFV
 70
     6
  9
$UCSBASE
  2

  9
$UCSNAME
  2

  9
$UCSORG
 10
0.0
 20
0.0
 30
0.0
  9
$UCSXDIR
 10
1.0
 20
0.0
 30
0.0
  9
$UCSYDIR
 10
0.0
 20
1.0
 30
0.0
  9
$UCSORTHOREF
  2

  9
$UCSORTHOVIEW
 70
     0
  9
$UCSORGTOP
 10
0.0
 20
0.0
 30
0.0
  9
$UCSORGBOTTOM
 10
0.0
 20
0.0
 30
0.0
  9
$UCSORGLEFT
 10
0.0
 20
0.0
 30
0.0
  9
$UCSORGRIGHT
 10
0.0
 20
0.0
 30
0.0
  9
$UCSORGFRONT
 10
0.0
 20
0.0
 30
0.0
  9
$UCSORGBACK
 10
0.0
 20
0.0
 30
0.0
  9
$PUCSBASE
  2

  9
$PUCSNAME
  2

  9
$PUCSORG
 10
0.0
 20
0.0
 30
0.0
  9
$PUCSXDIR
 10
1.0
 20
0.0
 30
0.0
  9
$PUCSYDIR
 10
0.0
 20
1.0
 30
0.0
  9
$PUCSORTHOREF
  2

  9
$PUCSORTHOVIEW
 70
     0
  9
$PUCSORGTOP
 10
0.0
 20
0.0
 30
0.0
  9
$PUCSORGBOTTOM
 10
0.0
 20
0.0
 30
0.0
  9
$PUCSORGLEFT
 10
0.0
 20
0.0
 30
0.0
  9
$PUCSORGRIGHT
 10
0.0
 20
0.0
 30
0.0
  9
$PUCSORGFRONT
 10
0.0
 20
0.0
 30
0.0
  9
$PUCSORGBACK
 10
0.0
 20
0.0
 30
0.0
  9
$USERI1
 70
     0
  9
$USERI2
 70
     0
  9
$USERI3
 70
     0
  9
$USERI4
 70
     0
  9
$USERI5
 70
     0
  9
$USERR1
 40
0.0
  9
$USERR2
 40
0.0
  9
$USERR3
 40
0.0
  9
$USERR4
 40
0.0
  9
$USERR5
 40
0.0
  9
$WORLDVIEW
 70
     1
  9
$SHADEDGE
 70
     3
  9
$SHADEDIF
 70
    70
  9
$TILEMODE
 70
     1
  9
$MAXACTVP
 70
    64
  9
$PINSBASE
 10
0.0
 20
0.0
 30
0.0
  9
$PLIMCHECK
 70
     0
  9
$PEXTMIN
 10
0.0
 20
0.0
 30
0.0
  9
$PEXTMAX
 10
105.0
 20
148.5
 30
0.0
  9
$PLIMMIN
 10
0.0
 20
0.0
  9
$PLIMMAX
 10
105.0
 20
148.5
  9
$UNITMODE
 70
     0
  9
$VISRETAIN
 70
     1
  9
$PLINEGEN
 70
     0
  9
$PSLTSCALE
 70
     1
  9
$TREEDEPTH
 70
  3020
  9
$CMLSTYLE
  2
Standard
  9
$CMLJUST
 70
     0
  9
$CMLSCALE
 40
1.0
  9
$PROXYGRAPHICS
 70
     1
  9
$MEASUREMENT
 70
     1
  9
$CELWEIGHT
370
    -1
  9
$ENDCAPS
280
     0
  9
$JOINSTYLE
280
     0
  9
$LWDISPLAY
290
     0
  9
$INSUNITS
 70
     4
  9
$HYPERLINKBASE
  1

  9
$STYLESHEET
  1

  9
$XEDIT
290
     1
  9
$CEPSNTYPE
380
     0
  9
$PSTYLEMODE
290
     1
  9
$FINGERPRINTGUID
  2
{9E437E44-7DA9-48DF-991F-F1F45806F34F}
  9
$VERSIONGUID
  2
{B7BF93F1-6883-45A3-AA21-4E4F353D69F1}
  9
$EXTNAMES
290
     1
  9
$PSVPSCALE
 40
0.0
  9
$OLESTARTUP
290
     0
  0
ENDSEC
  0
SECTION
  2
CLASSES
  0
CLASS
  1
ACDBDICTIONARYWDFLT
  2
AcDbDictionaryWithDefault
  3
ObjectDBX Classes
 90
        0
280
     0
281
     0
  0
CLASS
  1
MATERIAL
  2
AcDbMaterial
  3
ObjectDBX Classes
 90
     1153
280
     0
281
     0
  0
CLASS
  1
VISUALSTYLE
  2
AcDbVisualStyle
  3
ObjectDBX Classes
 90
     4095
280
     0
281
     0
  0
CLASS
  1
SCALE
  2
AcDbScale
  3
ObjectDBX Classes
 90
     1153
280
     0
281
     0
  0
CLASS
  1
TABLESTYLE
  2
AcDbTableStyle
  3
ObjectDBX Classes
 90
     4095
280
     0
281
     0
  0
CLASS
  1
MLEADERSTYLE
  2
AcDbMLeaderStyle
  3
ACDB_MLEADERSTYLE_CLASS
 90
     4095
280
     0
281
     0
  0
CLASS
  1
DICTIONARYVAR
  2
AcDbDictionaryVar
  3
ObjectDBX Classes
 90
        0
280
     0
281
     0
  0
CLASS
  1
IMAGE
  2
AcDbRasterImage
  3
ISM
 90
     2175
280
     0
281
     1
  0
CLASS
  1
IMAGEDEF
  2
AcDbRasterImageDef
  3
ISM
 90
        0
280
     0
281
     0
  0
CLASS
  1
IMAGEDEF_REACTOR
  2
AcDbRasterImageDefReactor
  3
ISM
 90
        1
280
     0
281
     0
  0
CLASS
  1
RASTERVARIABLES
  2
AcDbRasterVariables
  3
ISM
 90
        0
280
     0
281
     0
  0
CLASS
  1
SORTENTSTABLE
  2
AcDbSortentsTable
  3
ObjectDBX Classes
 90
        0
280
     0
281
     0
  0
CLASS
  1
CELLSTYLEMAP
  2
AcDbCellStyleMap
  3
ObjectDBX Classes
 90
     1152
280
     0
281
     0
  0
CLASS
  1
ACDBPLACEHOLDER
  2
AcDbPlaceHolder
  3
ObjectDBX Classes
 90
        0
280
     0
281
     0
  0
CLASS
  1
LAYOUT
  2
AcDbLayout
  3
ObjectDBX Classes
 90
        0
280
     0
281
     0
  0
ENDSEC
  0
SECTION
  2
TABLES
  0
TABLE
  2
VPORT
  5
8
330
0
100
AcDbSymbolTable
 70
     1
  0
VPORT
  5
62
330
8
100
AcDbSymbolTableRecord
100
AcDbViewportTableRecord
  2
*Active
 70
     0
 10
0.0
 20
0.0
 11
1.0
 21
1.0
 12
52.5
 22
74.25
 13
0.0
 23
0.0
 14
1.0
 24
1.0
 15
0.0
 25
0.0
 16
0.0
 26
0.0
 36
1.0
 17
0.0
 27
0.0
 37
0.0
 40
148.5
 41
0.7070707070707071
 42
50.0
 43
0.0
 44
0.0
 50
0.0
 51
0.0
 71
     0
 72
   100
 73
     1
 74
     1
 75
     0
 76
     0
 77
     0
 78
     0
281
     0
 65
     1
110
0.0
120
0.0
130
0.0
111
1.0
121
0.0
131
0.0
112
0.0
122
1.0
132
0.0
 79
     0
146
0.0
  0
ENDTAB
  0
TABLE
  2
LTYPE
  5
5
330
0
100
AcDbSymbolTable
 70
    59
  0
LTYPE
  5
66
330
5
100
AcDbSymbolTableRecord
100
AcDbLinetypeTableRecord
  2
ByBlock
 70
     0
  3

 72
    65
 73
     0
 40
0.0
  0
LTYPE
  5
67
330
5
100
AcDbSymbolTableRecord
100
AcDbLinetypeTableRecord
  2
ByLayer
 70
     0
  3

 72
    65
 73
     0
 40
0.0
  0
LTYPE
  5
68
330
5
100
AcDbSymbolTableRecord
100
AcDbLinetypeTableRecord
  2
Continuous
 70
     0
  3
Solid line
 72
    65
 73
     0
 40
0.0
  0
LTYPE
  5
85
330
5
100
AcDbSymbolTableRecord
100
AcDbLinetypeTableRecord
  2
Section_View_Lines
 70
     0
  3
Section View Lines
 72
    65
 73
     4
 40
0.8406
 49
0.6614
 74
     0
 49
-0.0827
 74
     0
 49
0.0138
 74
     0
 49
-0.0827
 74
     0
  0
LTYPE
  5
86
330
5
100
AcDbSymbolTableRecord
100
AcDbLinetypeTableRecord
  2
CHAIN
 70
     0
  3
Chain ____ _ ____ _ ____ _ ____ _ ____ _ ____
 72
    65
 73
     4
 40
0.3543
 49
0.2362
 74
     0
 49
-0.0295
 74
     0
 49
0.0591
 74
     0
 49
-0.0295
 74
     0
  0
LTYPE
  5
87
330
5
100
AcDbSymbolTableRecord
100
AcDbLinetypeTableRecord
  2
DASH_DOT
 70
     0
  3
Dash dot _._._._._._._._._._._._._._._.
 72
    65
 73
     4
 40
0.182
 49
0.1181
 74
     0
 49
-0.0295
 74
     0
 49
0.0049
 74
     0
 49
-0.0295
 74
     0
  0
LTYPE
  5
88
330
5
100
AcDbSymbolTableRecord
100
AcDbLinetypeTableRecord
  2
DASH_DOUBLE_DOT
 70
     0
  3
Dash Double Dot __ __ . __ __ . __ __ . __ _
 72
    65
 73
     6
 40
0.2164
 49
0.1181
 74
     0
 49
-0.0295
 74
     0
 49
0.0049
 74
     0
 49
-0.0295
 74
     0
 49
0.0049
 74
     0
 49
-0.0295
 74
     0
  0
LTYPE
  5
89
330
5
100
AcDbSymbolTableRecord
100
AcDbLinetypeTableRecord
  2
DASH_TRIPLE_DOT
 70
     0
  3
Dash Triple-Dot _ . . . _ . . . _ . . . _
 72
    65
 73
     8
 40
0.2508
 49
0.1181
 74
     0
 49
-0.0295
 74
     0
 49
0.0049
 74
     0
 49
-0.0295
 74
     0
 49
0.0049
 74
     0
 49
-0.0295
 74
     0
 49
0.0049
 74
     0
 49
-0.0295
 74
     0
  0
LTYPE
  5
8A
330
5
100
AcDbSymbolTableRecord
100
AcDbLinetypeTableRecord
  2
DASHED
 70
     0
  3
Dashed __ __ __ __ __ __ __ __ __ __ __ __ __ _
 72
    65
 73
     2
 40
0.2068
 49
0.1655
 74
     0
 49
-0.0413
 74
     0
  0
LTYPE
  5
8B
330
5
100
AcDbSymbolTableRecord
100
AcDbLinetypeTableRecord
  2
DASHED_SPACE
 70
     0
  3
Dashed Space __ __ __ __ __ __ __ __ __ __ __ _
 72
    65
 73
     2
 40
0.2067
 49
0.1654
 74
     0
 49
-0.0413
 74
     0
  0
LTYPE
  5
8C
330
5
100
AcDbSymbolTableRecord
100
AcDbLinetypeTableRecord
  2
DOTTED
 70
     0
  3
Dotted . . . . . . . . . . . . . . . . . . . . 
 72
    65
 73
     2
 40
0.0481
 49
0.0068
 74
     0
 49
-0.0413
 74
     0
  0
LTYPE
  5
8D
330
5
100
AcDbSymbolTableRecord
100
AcDbLinetypeTableRecord
  2
DOUBLE_DASH_CHAIN
 70
     0
  3
Double Dash Chain ___ _ _ ___ _ _ ___ _ _ ___ _
 72
    65
 73
     6
 40
1.240299999999999
 49
0.6614
 74
     0
 49
-0.0827
 74
     0
 49
0.1654
 74
     0
 49
-0.0827
 74
     0
 49
0.1654
 74
     0
 49
-0.0827
 74
     0
  0
LTYPE
  5
8E
330
5
100
AcDbSymbolTableRecord
100
AcDbLinetypeTableRecord
  2
DOUBLE_DASH_DOT
 70
     0
  3
Double Dash Dot __ __ . __ __ . __ __ . __ _
 72
    65
 73
     6
 40
0.3296
 49
0.1181
 74
     0
 49
-0.0295
 74
     0
 49
0.1181
 74
     0
 49
-0.0295
 74
     0
 49
0.0049
 74
     0
 49
-0.0295
 74
     0
  0
LTYPE
  5
8F
330
5
100
AcDbSymbolTableRecord
100
AcDbLinetypeTableRecord
  2
DOUBLE_DASH_DOUBLE_DOT
 70
     0
  3
Double Dash Double Dot _ _ . . _ _ . . _ _
 72
    65
 73
     8
 40
0.364
 49
0.1181
 74
     0
 49
-0.0295
 74
     0
 49
0.1181
 74
     0
 49
-0.0295
 74
     0
 49
0.0049
 74
     0
 49
-0.0295
 74
     0
 49
0.0049
 74
     0
 49
-0.0295
 74
     0
  0
LTYPE
  5
90
330
5
100
AcDbSymbolTableRecord
100
AcDbLinetypeTableRecord
  2
DOUBLE_DASH_TRIPLE_DOT
 70
     0
  3
Double Dash Triple Dot __ __ . . . __ __ . . .
 72
    65
 73
    10
 40
0.3984
 49
0.1181
 74
     0
 49
-0.0295
 74
     0
 49
0.1181
 74
     0
 49
-0.0295
 74
     0
 49
0.0049
 74
     0
 49
-0.0295
 74
     0
 49
0.0049
 74
     0
 49
-0.0295
 74
     0
 49
0.0049
 74
     0
 49
-0.0295
 74
     0
  0
LTYPE
  5
91
330
5
100
AcDbSymbolTableRecord
100
AcDbLinetypeTableRecord
  2
LONG_DASH_DOTTED
 70
     0
  3
Long Dash Dotted ____ . ____ . ____ . ____ . _
 72
    65
 73
     4
 40
0.3001
 49
0.2362
 74
     0
 49
-0.0295
 74
     0
 49
0.0049
 74
     0
 49
-0.0295
 74
     0
  0
LTYPE
  5
92
330
5
100
AcDbSymbolTableRecord
100
AcDbLinetypeTableRecord
  2
LONG_DASH_DOUBLE_DOT
 70
     0
  3
Long Dash Double Dot ____ . . ____ . . ____ . .
 72
    65
 73
     6
 40
0.3345
 49
0.2362
 74
     0
 49
-0.0295
 74
     0
 49
0.0049
 74
     0
 49
-0.0295
 74
     0
 49
0.0049
 74
     0
 49
-0.0295
 74
     0
  0
LTYPE
  5
93
330
5
100
AcDbSymbolTableRecord
100
AcDbLinetypeTableRecord
  2
LONG_DASH_TRIPLE_DOT
 70
     0
  3
Long Dash Triple Dot ____ ... ____ ... ____
 72
    65
 73
     8
 40
0.3689
 49
0.2362
 74
     0
 49
-0.0295
 74
     0
 49
0.0049
 74
     0
 49
-0.0295
 74
     0
 49
0.0049
 74
     0
 49
-0.0295
 74
     0
 49
0.0049
 74
     0
 49
-0.0295
 74
     0
  0
LTYPE
  5
94
330
5
100
AcDbSymbolTableRecord
100
AcDbLinetypeTableRecord
  2
BORDER
 70
     0
  3
Border __ __ . __ __ . __ __ . __ __ . __ __ .
 72
    65
 73
     6
 40
44.45
 49
12.7
 74
     0
 49
-6.349999999999999
 74
     0
 49
12.7
 74
     0
 49
-6.349999999999999
 74
     0
 49
0.0
 74
     0
 49
-6.349999999999999
 74
     0
  0
LTYPE
  5
95
330
5
100
AcDbSymbolTableRecord
100
AcDbLinetypeTableRecord
  2
BORDER2
 70
     0
  3
Border (.5x) __.__.__.__.__.__.__.__.__.__.__.
 72
    65
 73
     6
 40
22.225
 49
6.349999999999999
 74
     0
 49
-3.174999999999999
 74
     0
 49
6.349999999999999
 74
     0
 49
-3.174999999999999
 74
     0
 49
0.0
 74
     0
 49
-3.174999999999999
 74
     0
  0
LTYPE
  5
96
330
5
100
AcDbSymbolTableRecord
100
AcDbLinetypeTableRecord
  2
BORDERX2
 70
     0
  3
Border (2x) ____  ____  .  ____  ____  .  ___
 72
    65
 73
     6
 40
88.9
 49
25.4
 74
     0
 49
-12.7
 74
     0
 49
25.4
 74
     0
 49
-12.7
 74
     0
 49
0.0
 74
     0
 49
-12.7
 74
     0
  0
LTYPE
  5
97
330
5
100
AcDbSymbolTableRecord
100
AcDbLinetypeTableRecord
  2
CENTER
 70
     0
  3
Center ____ _ ____ _ ____ _ ____ _ ____ _ ____
 72
    65
 73
     4
 40
50.8
 49
31.75
 74
     0
 49
-6.349999999999999
 74
     0
 49
6.349999999999999
 74
     0
 49
-6.349999999999999
 74
     0
  0
LTYPE
  5
98
330
5
100
AcDbSymbolTableRecord
100
AcDbLinetypeTableRecord
  2
CENTER2
 70
     0
  3
Center (.5x) ___ _ ___ _ ___ _ ___ _ ___ _ ___
 72
    65
 73
     4
 40
28.575
 49
19.05
 74
     0
 49
-3.174999999999999
 74
     0
 49
3.174999999999999
 74
     0
 49
-3.174999999999999
 74
     0
  0
LTYPE
  5
99
330
5
100
AcDbSymbolTableRecord
100
AcDbLinetypeTableRecord
  2
CENTERX2
 70
     0
  3
Center (2x) ________  __  ________  __  _____
 72
    65
 73
     4
 40
101.6
 49
63.5
 74
     0
 49
-12.7
 74
     0
 49
12.7
 74
     0
 49
-12.7
 74
     0
  0
LTYPE
  5
9A
330
5
100
AcDbSymbolTableRecord
100
AcDbLinetypeTableRecord
  2
DASHDOT2
 70
     0
  3
Dash dot (.5x) _._._._._._._._._._._._._._._.
 72
    65
 73
     4
 40
12.7
 49
6.349999999999999
 74
     0
 49
-3.174999999999999
 74
     0
 49
0.0
 74
     0
 49
-3.174999999999999
 74
     0
  0
LTYPE
  5
9B
330
5
100
AcDbSymbolTableRecord
100
AcDbLinetypeTableRecord
  2
DASHDOTX2
 70
     0
  3
Dash dot (2x) ____  .  ____  .  ____  .  ___
 72
    65
 73
     4
 40
50.8
 49
25.4
 74
     0
 49
-12.7
 74
     0
 49
0.0
 74
     0
 49
-12.7
 74
     0
  0
LTYPE
  5
9C
330
5
100
AcDbSymbolTableRecord
100
AcDbLinetypeTableRecord
  2
DASHED2
 70
     0
  3
Dashed (.5x) _ _ _ _ _ _ _ _ _ _ _ _ _ _ _ _ _
 72
    65
 73
     2
 40
9.524999999999998
 49
6.349999999999999
 74
     0
 49
-3.174999999999999
 74
     0
  0
LTYPE
  5
9D
330
5
100
AcDbSymbolTableRecord
100
AcDbLinetypeTableRecord
  2
DASHEDX2
 70
     0
  3
Dashed (2x) ____  ____  ____  ____  ____  ___
 72
    65
 73
     2
 40
38.1
 49
25.4
 74
     0
 49
-12.7
 74
     0
  0
LTYPE
  5
9E
330
5
100
AcDbSymbolTableRecord
100
AcDbLinetypeTableRecord
  2
DIVIDE
 70
     0
  3
Divide ____ . . ____ . . ____ . . ____ . . ____
 72
    65
 73
     6
 40
31.75
 49
12.7
 74
     0
 49
-6.349999999999999
 74
     0
 49
0.0
 74
     0
 49
-6.349999999999999
 74
     0
 49
0.0
 74
     0
 49
-6.349999999999999
 74
     0
  0
LTYPE
  5
9F
330
5
100
AcDbSymbolTableRecord
100
AcDbLinetypeTableRecord
  2
DIVIDE2
 70
     0
  3
Divide (.5x) __..__..__..__..__..__..__..__.._
 72
    65
 73
     6
 40
15.875
 49
6.349999999999999
 74
     0
 49
-3.174999999999999
 74
     0
 49
0.0
 74
     0
 49
-3.174999999999999
 74
     0
 49
0.0
 74
     0
 49
-3.174999999999999
 74
     0
  0
LTYPE
  5
A0
330
5
100
AcDbSymbolTableRecord
100
AcDbLinetypeTableRecord
  2
DIVIDEX2
 70
     0
  3
Divide (2x) ________  .  .  ________  .  .  _
 72
    65
 73
     6
 40
63.49999999999999
 49
25.4
 74
     0
 49
-12.7
 74
     0
 49
0.0
 74
     0
 49
-12.7
 74
     0
 49
0.0
 74
     0
 49
-12.7
 74
     0
  0
LTYPE
  5
A1
330
5
100
AcDbSymbolTableRecord
100
AcDbLinetypeTableRecord
  2
DOT
 70
     0
  3
Dot . . . . . . . . . . . . . . . . . . . . . .
 72
    65
 73
     2
 40
6.349999999999999
 49
0.0
 74
     0
 49
-6.349999999999999
 74
     0
  0
LTYPE
  5
A2
330
5
100
AcDbSymbolTableRecord
100
AcDbLinetypeTableRecord
  2
DOT2
 70
     0
  3
Dot (.5x) .....................................
 72
    65
 73
     2
 40
3.174999999999999
 49
0.0
 74
     0
 49
-3.174999999999999
 74
     0
  0
LTYPE
  5
A3
330
5
100
AcDbSymbolTableRecord
100
AcDbLinetypeTableRecord
  2
DOTX2
 70
     0
  3
Dot (2x) .  .  .  .  .  .  .  .  .  .  .  .  . 
 72
    65
 73
     2
 40
12.7
 49
0.0
 74
     0
 49
-12.7
 74
     0
  0
LTYPE
  5
A4
330
5
100
AcDbSymbolTableRecord
100
AcDbLinetypeTableRecord
  2
HIDDEN
 70
     0
  3
Hidden __ __ __ __ __ __ __ __ __ __ __ __ __ _
 72
    65
 73
     2
 40
9.524999999999998
 49
6.349999999999999
 74
     0
 49
-3.174999999999999
 74
     0
  0
LTYPE
  5
A5
330
5
100
AcDbSymbolTableRecord
100
AcDbLinetypeTableRecord
  2
HIDDEN2
 70
     0
  3
Hidden (.5x) _ _ _ _ _ _ _ _ _ _ _ _ _ _ _ _ _
 72
    65
 73
     2
 40
4.762499999999999
 49
3.174999999999999
 74
     0
 49
-1.587499999999999
 74
     0
  0
LTYPE
  5
A6
330
5
100
AcDbSymbolTableRecord
100
AcDbLinetypeTableRecord
  2
HIDDENX2
 70
     0
  3
Hidden (2x) ____ ____ ____ ____ ____ ____ ____
 72
    65
 73
     2
 40
19.05
 49
12.7
 74
     0
 49
-6.349999999999999
 74
     0
  0
LTYPE
  5
A7
330
5
100
AcDbSymbolTableRecord
100
AcDbLinetypeTableRecord
  2
PHANTOM
 70
     0
  3
Phantom ______  __  __  ______  __  __  ______
 72
    65
 73
     6
 40
63.5
 49
31.75
 74
     0
 49
-6.349999999999999
 74
     0
 49
6.349999999999999
 74
     0
 49
-6.349999999999999
 74
     0
 49
6.349999999999999
 74
     0
 49
-6.349999999999999
 74
     0
  0
LTYPE
  5
A8
330
5
100
AcDbSymbolTableRecord
100
AcDbLinetypeTableRecord
  2
PHANTOM2
 70
     0
  3
Phantom (.5x) ___ _ _ ___ _ _ ___ _ _ ___ _ _
 72
    65
 73
     6
 40
31.75
 49
15.875
 74
     0
 49
-3.174999999999999
 74
     0
 49
3.174999999999999
 74
     0
 49
-3.174999999999999
 74
     0
 49
3.174999999999999
 74
     0
 49
-3.174999999999999
 74
     0
  0
LTYPE
  5
A9
330
5
100
AcDbSymbolTableRecord
100
AcDbLinetypeTableRecord
  2
PHANTOMX2
 70
     0
  3
Phantom (2x) ____________    ____    ____   _
 72
    65
 73
     6
 40
127.0
 49
63.5
 74
     0
 49
-12.7
 74
     0
 49
12.7
 74
     0
 49
-12.7
 74
     0
 49
12.7
 74
     0
 49
-12.7
 74
     0
  0
LTYPE
  5
AA
330
5
100
AcDbSymbolTableRecord
100
AcDbLinetypeTableRecord
  2
ACAD_ISO02W100
 70
     0
  3
ISO dash __ __ __ __ __ __ __ __ __ __ __ __ __
 72
    65
 73
     2
 40
15.0
 49
12.0
 74
     0
 49
-3.0
 74
     0
  0
LTYPE
  5
AB
330
5
100
AcDbSymbolTableRecord
100
AcDbLinetypeTableRecord
  2
ACAD_ISO03W100
 70
     0
  3
ISO dash space __    __    __    __    __    __
 72
    65
 73
     2
 40
30.0
 49
12.0
 74
     0
 49
-18.0
 74
     0
  0
LTYPE
  5
AC
330
5
100
AcDbSymbolTableRecord
100
AcDbLinetypeTableRecord
  2
ACAD_ISO04W100
 70
     0
  3
ISO long-dash dot ____ . ____ . ____ . ____ . _
 72
    65
 73
     4
 40
30.0
 49
24.0
 74
     0
 49
-3.0
 74
     0
 49
0.0
 74
     0
 49
-3.0
 74
     0
  0
LTYPE
  5
AD
330
5
100
AcDbSymbolTableRecord
100
AcDbLinetypeTableRecord
  2
ACAD_ISO05W100
 70
     0
  3
ISO long-dash double-dot ____ .. ____ .. ____ .
 72
    65
 73
     6
 40
33.0
 49
24.0
 74
     0
 49
-3.0
 74
     0
 49
0.0
 74
     0
 49
-3.0
 74
     0
 49
0.0
 74
     0
 49
-3.0
 74
     0
  0
LTYPE
  5
AE
330
5
100
AcDbSymbolTableRecord
100
AcDbLinetypeTableRecord
  2
ACAD_ISO06W100
 70
     0
  3
ISO long-dash triple-dot ____ ... ____ ... ____
 72
    65
 73
     8
 40
36.0
 49
24.0
 74
     0
 49
-3.0
 74
     0
 49
0.0
 74
     0
 49
-3.0
 74
     0
 49
0.0
 74
     0
 49
-3.0
 74
     0
 49
0.0
 74
     0
 49
-3.0
 74
     0
  0
LTYPE
  5
AF
330
5
100
AcDbSymbolTableRecord
100
AcDbLinetypeTableRecord
  2
ACAD_ISO07W100
 70
     0
  3
ISO dot . . . . . . . . . . . . . . . . . . . .
 72
    65
 73
     2
 40
3.0
 49
0.0
 74
     0
 49
-3.0
 74
     0
  0
LTYPE
  5
B0
330
5
100
AcDbSymbolTableRecord
100
AcDbLinetypeTableRecord
  2
ACAD_ISO08W100
 70
     0
  3
ISO long-dash short-dash ____ __ ____ __ ____ _
 72
    65
 73
     4
 40
36.0
 49
24.0
 74
     0
 49
-3.0
 74
     0
 49
6.0
 74
     0
 49
-3.0
 74
     0
  0
LTYPE
  5
B1
330
5
100
AcDbSymbolTableRecord
100
AcDbLinetypeTableRecord
  2
ACAD_ISO09W100
 70
     0
  3
ISO long-dash double-short-dash ____ __ __ ____
 72
    65
 73
     6
 40
45.0
 49
24.0
 74
     0
 49
-3.0
 74
     0
 49
6.0
 74
     0
 49
-3.0
 74
     0
 49
6.0
 74
     0
 49
-3.0
 74
     0
  0
LTYPE
  5
B2
330
5
100
AcDbSymbolTableRecord
100
AcDbLinetypeTableRecord
  2
ACAD_ISO10W100
 70
     0
  3
ISO dash dot __ . __ . __ . __ . __ . __ . __ .
 72
    65
 73
     4
 40
18.0
 49
12.0
 74
     0
 49
-3.0
 74
     0
 49
0.0
 74
     0
 49
-3.0
 74
     0
  0
LTYPE
  5
B3
330
5
100
AcDbSymbolTableRecord
100
AcDbLinetypeTableRecord
  2
ACAD_ISO11W100
 70
     0
  3
ISO double-dash dot __ __ . __ __ . __ __ . __ 
 72
    65
 73
     6
 40
33.0
 49
12.0
 74
     0
 49
-3.0
 74
     0
 49
12.0
 74
     0
 49
-3.0
 74
     0
 49
0.0
 74
     0
 49
-3.0
 74
     0
  0
LTYPE
  5
B4
330
5
100
AcDbSymbolTableRecord
100
AcDbLinetypeTableRecord
  2
ACAD_ISO12W100
 70
     0
  3
ISO dash double-dot __ . . __ . . __ . . __ . .
 72
    65
 73
     6
 40
21.0
 49
12.0
 74
     0
 49
-3.0
 74
     0
 49
0.0
 74
     0
 49
-3.0
 74
     0
 49
0.0
 74
     0
 49
-3.0
 74
     0
  0
LTYPE
  5
B5
330
5
100
AcDbSymbolTableRecord
100
AcDbLinetypeTableRecord
  2
ACAD_ISO13W100
 70
     0
  3
ISO double-dash double-dot __ __ . . __ __ . . 
 72
    65
 73
     8
 40
36.0
 49
12.0
 74
     0
 49
-3.0
 74
     0
 49
12.0
 74
     0
 49
-3.0
 74
     0
 49
0.0
 74
     0
 49
-3.0
 74
     0
 49
0.0
 74
     0
 49
-3.0
 74
     0
  0
LTYPE
  5
B6
330
5
100
AcDbSymbolTableRecord
100
AcDbLinetypeTableRecord
  2
ACAD_ISO14W100
 70
     0
  3
ISO dash triple-dot __ . . . __ . . . __ . . . 
 72
    65
 73
     8
 40
24.0
 49
12.0
 74
     0
 49
-3.0
 74
     0
 49
0.0
 74
     0
 49
-3.0
 74
     0
 49
0.0
 74
     0
 49
-3.0
 74
     0
 49
0.0
 74
     0
 49
-3.0
 74
     0
  0
LTYPE
  5
B7
330
5
100
AcDbSymbolTableRecord
100
AcDbLinetypeTableRecord
  2
ACAD_ISO15W100
 70
     0
  3
ISO double-dash triple-dot __ __ . . . __ __ . 
 72
    65
 73
    10
 40
39.0
 49
12.0
 74
     0
 49
-3.0
 74
     0
 49
12.0
 74
     0
 49
-3.0
 74
     0
 49
0.0
 74
     0
 49
-3.0
 74
     0
 49
0.0
 74
     0
 49
-3.0
 74
     0
 49
0.0
 74
     0
 49
-3.0
 74
     0
  0
LTYPE
  5
BA
330
5
100
AcDbSymbolTableRecord
100
AcDbLinetypeTableRecord
  2
FENCELINE1
 70
     0
  3
Fenceline circle ----0-----0----0-----0----0---
 72
    65
 73
     4
 40
36.83
 49
6.349999999999999
 74
     0
 49
-2.54
 74
     4
 75
   133
340
B9
 46
2.54
 50
0.0
 44
-2.54
 45
0.0
 49
-2.54
 74
     0
 49
25.4
 74
     0
  0
LTYPE
  5
BB
330
5
100
AcDbSymbolTableRecord
100
AcDbLinetypeTableRecord
  2
FENCELINE2
 70
     0
  3
Fenceline square ----[]-----[]----[]-----[]----
 72
    65
 73
     4
 40
36.83
 49
6.349999999999999
 74
     0
 49
-2.54
 74
     4
 75
   132
340
B9
 46
2.54
 50
0.0
 44
-2.54
 45
0.0
 49
-2.54
 74
     0
 49
25.4
 74
     0
  0
LTYPE
  5
BC
330
5
100
AcDbSymbolTableRecord
100
AcDbLinetypeTableRecord
  2
TRACKS
 70
     0
  3
Tracks -|-|-|-|-|-|-|-|-|-|-|-|-|-|-|-|-|-|-|-|
 72
    65
 73
     2
 40
7.62
 49
3.81
 74
     4
 75
   130
340
B9
 46
6.349999999999999
 50
0.0
 44
0.0
 45
0.0
 49
3.81
 74
     0
  0
LTYPE
  5
BD
330
5
100
AcDbSymbolTableRecord
100
AcDbLinetypeTableRecord
  2
BATTING
 70
     0
  3
Batting SSSSSSSSSSSSSSSSSSSSSSSSSSSSSSSSSSSSSSS
 72
    65
 73
     4
 40
10.16254
 49
0.00254
 74
     0
 49
-2.54
 74
     4
 75
   134
340
B9
 46
2.54
 50
0.0
 44
-2.54
 45
0.0
 49
-5.08
 74
     4
 75
   134
340
B9
 46
2.54
 50
180.0
 44
2.54
 45
0.0
 49
-2.54
 74
     0
  0
LTYPE
  5
BE
330
5
100
AcDbSymbolTableRecord
100
AcDbLinetypeTableRecord
  2
HOT_WATER_SUPPLY
 70
     0
  3
Hot water supply ---- HW ---- HW ---- HW ----
 72
    65
 73
     3
 40
22.86
 49
12.7
 74
     0
 49
-5.08
 74
     2
 75
     0
340
60
 46
2.54
 50
0.0
 44
-2.54
 45
-1.27
  9
HW
 49
-5.08
 74
     0
  0
LTYPE
  5
BF
330
5
100
AcDbSymbolTableRecord
100
AcDbLinetypeTableRecord
  2
GAS_LINE
 70
     0
  3
Gas line ----GAS----GAS----GAS----GAS----GAS---
 72
    65
 73
     3
 40
24.13
 49
12.7
 74
     0
 49
-5.08
 74
     2
 75
     0
340
60
 46
2.54
 50
0.0
 44
-2.54
 45
-1.27
  9
GAS
 49
-6.349999999999999
 74
     0
  0
LTYPE
  5
C0
330
5
100
AcDbSymbolTableRecord
100
AcDbLinetypeTableRecord
  2
ZIGZAG
 70
     0
  3
Zig zag /\/\/\/\/\/\/\/\/\/\/\/\/\/\/\/\/\/\/\/
 72
    65
 73
     4
 40
20.32254
 49
0.00254
 74
     0
 49
-5.08
 74
     4
 75
   131
340
B9
 46
5.08
 50
0.0
 44
-5.08
 45
0.0
 49
-10.16
 74
     4
 75
   131
340
B9
 46
5.08
 50
180.0
 44
5.08
 45
0.0
 49
-5.08
 74
     0
  0
ENDTAB
  0
TABLE
  2
LAYER
  5
2
330
0
100
AcDbSymbolTable
 70
    29
  0
LAYER
  5
5F
330
2
100
AcDbSymbolTableRecord
100
AcDbLayerTableRecord
  2
0
 70
     0
 62
     7
  6
Continuous
370
    -3
390
F
  0
LAYER
  5
C6
330
2
100
AcDbSymbolTableRecord
100
AcDbLayerTableRecord
  2
Center Mark (ISO)
 70
     0
 62
     7
  6
Continuous
370
     5
390
F
  0
LAYER
  5
C9
330
2
100
AcDbSymbolTableRecord
100
AcDbLayerTableRecord
  2
Dimension (ISO)
 70
     0
 62
     7
  6
Continuous
370
     5
390
F
  0
LAYER
  5
D3
330
2
100
AcDbSymbolTableRecord
100
AcDbLayerTableRecord
  2
Title (ISO)
 70
     0
 62
     7
  6
Continuous
370
    20
390
F
  0
LAYER
  5
D4
330
2
100
AcDbSymbolTableRecord
100
AcDbLayerTableRecord
  2
Title Block Outline
 70
     0
 62
     7
  6
Continuous
370
    30
390
F
  0
LAYER
  5
D7
330
2
100
AcDbSymbolTableRecord
100
AcDbLayerTableRecord
  2
Visible (ISO)
 70
     0
 62
     7
  6
Continuous
370
    18
390
F
  0
LAYER
  5
D8
330
2
100
AcDbSymbolTableRecord
100
AcDbLayerTableRecord
  2
Visible Narrow (ISO)
 70
     0
 62
     7
  6
Continuous
370
    18
390
F
  0
LAYER
  5
373
330
2
100
AcDbSymbolTableRecord
100
AcDbLayerTableRecord
  2
Defpoints
 70
     0
 62
     7
  6
Continuous
290
     0
370
    -3
390
F
  0
ENDTAB
  0
TABLE
  2
STYLE
  5
3
330
0
100
AcDbSymbolTable
 70
     9
  0
STYLE
  5
60
330
3
100
AcDbSymbolTableRecord
100
AcDbTextStyleTableRecord
  2
Standard
 70
     0
 40
0.0
 41
1.0
 50
0.0
 71
     0
 42
0.2
  3
txt
  4

  0
STYLE
  5
65
330
3
100
AcDbSymbolTableRecord
100
AcDbTextStyleTableRecord
  2
Annotative
 70
     0
 40
0.0
 41
1.0
 50
0.0
 71
     0
 42
0.2
  3
txt
  4

1001
AcadAnnotative
1000
AnnotativeData
1002
{
1070
     1
1070
     1
1002
}
  0
STYLE
  5
B9
330
3
100
AcDbSymbolTableRecord
100
AcDbTextStyleTableRecord
  2

 70
     1
 40
0.0
 41
1.0
 50
0.0
 71
     0
 42
0.2
  3
ltypeshp.shx
  4

  0
STYLE
  5
DC
330
3
100
AcDbSymbolTableRecord
100
AcDbTextStyleTableRecord
  2
Label Text (ISO)
 70
     0
 40
0.0
 41
1.0
 50
0.0
 71
     0
 42
0.2
  3
tahoma.ttf
  4

1001
ACAD
1000
Tahoma
1071
      256
  0
STYLE
  5
DD
330
3
100
AcDbSymbolTableRecord
100
AcDbTextStyleTableRecord
  2
Note Text (ISO)
 70
     0
 40
0.0
 41
1.0
 50
0.0
 71
     0
 42
0.2
  3
tahoma.ttf
  4

1001
ACAD
1000
Tahoma
1071
      256
  0
STYLE
  5
DE
330
3
100
AcDbSymbolTableRecord
100
AcDbTextStyleTableRecord
  2
Title Block 1.5
 70
     0
 40
0.0
 41
1.0
 50
0.0
 71
     0
 42
0.2
  3
romand.shx
  4

  0
STYLE
  5
DF
330
3
100
AcDbSymbolTableRecord
100
AcDbTextStyleTableRecord
  2
Title Block 3
 70
     0
 40
0.0
 41
1.0
 50
0.0
 71
     0
 42
0.2
  3
romand.shx
  4

  0
STYLE
  5
E0
330
3
100
AcDbSymbolTableRecord
100
AcDbTextStyleTableRecord
  2
Title Block 4
 70
     0
 40
0.0
 41
1.0
 50
0.0
 71
     0
 42
0.2
  3
romand.shx
  4

  0
STYLE
  5
14B
330
3
100
AcDbSymbolTableRecord
100
AcDbTextStyleTableRecord
  2
Text Style289
 70
     0
 40
0.0
 41
1.0
 50
0.0
 71
     0
 42
0.2
  3

  4

1001
ACAD
1000
Arial
1071
 33554688
  0
ENDTAB
  0
TABLE
  2
VIEW
  5
6
330
0
100
AcDbSymbolTable
 70
     0
  0
ENDTAB
  0
TABLE
  2
UCS
  5
7
330
0
100
AcDbSymbolTable
 70
     0
  0
ENDTAB
  0
TABLE
  2
APPID
  5
9
330
0
100
AcDbSymbolTable
 70
     4
  0
APPID
  5
61
330
9
100
AcDbSymbolTableRecord
100
AcDbRegAppTableRecord
  2
ACAD
 70
     0
  0
APPID
  5
69
330
9
100
AcDbSymbolTableRecord
100
AcDbRegAppTableRecord
  2
AcadAnnotative
 70
     0
  0
APPID
  5
14F
330
9
100
AcDbSymbolTableRecord
100
AcDbRegAppTableRecord
  2
AcadAnnoPO
 70
     0
  0
APPID
  5
100A
330
9
100
AcDbSymbolTableRecord
100
AcDbRegAppTableRecord
  2
ACAD_MLEADERVER
 70
     0
  0
ENDTAB
  0
TABLE
  2
DIMSTYLE
  5
A
330
0
100
AcDbSymbolTable
 70
    15
100
AcDbDimStyleTable
 71
     2
340
E9
340
63
  0
DIMSTYLE
105
63
330
A
100
AcDbSymbolTableRecord
100
AcDbDimStyleTableRecord
  2
Standard
 70
     0
340
60
  0
DIMSTYLE
105
64
330
A
100
AcDbSymbolTableRecord
100
AcDbDimStyleTableRecord
  2
Annotative
 70
     0
340
60
1001
AcadAnnotative
1000
AnnotativeData
1002
{
1070
     1
1070
     1
1002
}
  0
DIMSTYLE
105
E1
330
A
100
AcDbSymbolTableRecord
100
AcDbDimStyleTableRecord
  2
Default - Method 1b (ISO)
 70
     0
 40
0.5
 41
2.5
 42
0.0
 43
5.999999999999999
 44
3.174999999999999
 45
0.00000001
 46
10.0
 73
     0
 77
     1
 78
     8
 79
     2
140
3.5
143
0.03937
147
0.762
171
     3
172
     1
176
   256
177
   256
178
   256
179
     1
271
     1
272
     2
274
     3
278
    44
284
     8
286
     8
340
DD
371
    -1
372
    -1
  0
DIMSTYLE
105
E2
330
A
100
AcDbSymbolTableRecord
100
AcDbDimStyleTableRecord
  2
Default - Method 1b (ISO)$7
 70
     0
 40
0.5
 41
2.5
 42
0.0
 43
5.999999999999999
 44
3.174999999999999
 45
0.00000001
 46
10.0
 73
     0
 77
     1
 78
     8
 79
     2
140
3.5
143
0.03937
147
0.762
171
     3
172
     1
176
   256
177
   256
178
   256
179
     1
271
     1
272
     2
274
     3
278
    44
284
     8
286
     8
340
DD
371
    -1
372
    -1
  0
DIMSTYLE
105
E3
330
A
100
AcDbSymbolTableRecord
100
AcDbDimStyleTableRecord
  2
Default - Method 2a (ISO)
 70
     0
 40
0.5
 41
2.5
 42
0.0
 43
5.999999999999999
 44
3.174999999999999
 45
0.00000001
 46
10.0
 77
     1
 78
     8
 79
     2
140
3.5
143
0.03937
147
0.762
171
     3
172
     1
176
   256
177
   256
178
   256
179
     1
271
     1
272
     2
274
     3
278
    44
284
     8
286
     8
340
DD
371
    -1
372
    -1
  0
DIMSTYLE
105
E4
330
A
100
AcDbSymbolTableRecord
100
AcDbDimStyleTableRecord
  2
Default - Method 2a (ISO)$7
 70
     0
 40
0.5
 41
2.5
 42
0.0
 43
5.999999999999999
 44
3.174999999999999
 45
0.00000001
 46
10.0
 77
     1
 78
     8
 79
     2
140
3.5
143
0.03937
147
0.762
171
     3
172
     1
176
   256
177
   256
178
   256
179
     1
271
     1
272
     2
274
     3
278
    44
284
     8
286
     8
340
DD
371
    -1
372
    -1
  0
DIMSTYLE
105
E5
330
A
100
AcDbSymbolTableRecord
100
AcDbDimStyleTableRecord
  2
Default - Method 2b (ISO)
 70
     0
 40
0.5
 41
2.5
 42
0.0
 43
5.999999999999999
 44
3.174999999999999
 45
0.00000001
 46
10.0
 77
     1
 78
     8
 79
     2
140
3.5
143
0.03937
147
0.762
171
     3
172
     1
176
   256
177
   256
178
   256
179
     1
271
     1
272
     2
274
     3
278
    44
284
     8
286
     8
340
DD
371
    -1
372
    -1
  0
DIMSTYLE
105
E6
330
A
100
AcDbSymbolTableRecord
100
AcDbDimStyleTableRecord
  2
Default - Method 2b (ISO)$7
 70
     0
 40
0.5
 41
2.5
 42
0.0
 43
5.999999999999999
 44
3.174999999999999
 45
0.00000001
 46
10.0
 77
     1
 78
     8
 79
     2
140
3.5
143
0.03937
147
0.762
171
     3
172
     1
176
   256
177
   256
178
   256
179
     1
271
     1
272
     2
274
     3
278
    44
284
     8
286
     8
340
DD
371
    -1
372
    -1
  0
DIMSTYLE
105
E7
330
A
100
AcDbSymbolTableRecord
100
AcDbDimStyleTableRecord
  2
Default - mm [in] (ISO)
 70
     0
  4
 in
 40
0.5
 41
2.5
 42
0.0
 43
5.999999999999999
 44
3.174999999999999
 45
0.00000001
 46
10.0
 73
     0
 74
     0
 77
     1
 78
     8
 79
     2
140
3.5
143
0.03937
147
0.762
170
     1
171
     1
172
     1
176
   256
177
   256
178
   256
179
     3
271
     1
272
     1
274
     1
275
     1
278
    44
284
     8
285
     8
286
     8
340
DD
371
    -1
372
    -1
  0
DIMSTYLE
105
E8
330
A
100
AcDbSymbolTableRecord
100
AcDbDimStyleTableRecord
  2
Default - mm [in] (ISO)$7
 70
     0
  4
 in
 40
0.5
 41
2.5
 42
0.0
 43
5.999999999999999
 44
3.174999999999999
 45
0.00000001
 46
10.0
 73
     0
 74
     0
 77
     1
 78
     8
 79
     2
140
3.5
143
0.03937
147
0.762
170
     1
171
     1
172
     1
176
   256
177
   256
178
   256
179
     3
271
     1
272
     1
274
     1
275
     1
278
    44
284
     8
285
     8
286
     8
340
DD
371
    -1
372
    -1
  0
DIMSTYLE
105
E9
102
{ACAD_REACTORS
330
372
330
471
330
547
330
629
330
70B
330
7E1
330
8B7
330
999
330
A6F
330
B51
330
C33
330
D15
330
DEB
330
ECB
102
}
330
A
100
AcDbSymbolTableRecord
100
AcDbDimStyleTableRecord
  2
Default (ISO)
 70
     0
 40
0.5
 41
2.5
 42
0.0
 43
5.999999999999999
 44
3.174999999999999
 45
0.00000001
 46
10.0
 73
     0
 74
     0
 77
     1
140
3.5
143
0.03937
146
1.001485756465366
147
0.762
171
     3
172
     1
176
   256
177
   256
178
   256
179
     1
271
     1
272
     2
274
     3
278
    44
340
DD
371
    -1
372
    -1
  0
DIMSTYLE
105
EA
330
A
100
AcDbSymbolTableRecord
100
AcDbDimStyleTableRecord
  2
Default (ISO)$7
 70
     0
 40
0.5
 41
2.5
 42
0.0
 43
5.999999999999999
 44
3.174999999999999
 45
0.00000001
 46
10.0
 73
     0
 74
     0
 77
     1
140
3.5
143
0.03937
146
1.001485756465366
147
0.762
171
     3
172
     1
176
   256
177
   256
178
   256
179
     1
271
     1
272
     2
274
     3
278
    44
340
DD
371
    -1
372
    -1
  0
DIMSTYLE
105
EB
330
A
100
AcDbSymbolTableRecord
100
AcDbDimStyleTableRecord
  2
Alternate (ISO)
 70
     0
 40
0.5
 41
2.5
340
60
342
EC
  0
DIMSTYLE
105
FD
330
A
100
AcDbSymbolTableRecord
100
AcDbDimStyleTableRecord
  2
Datum (ISO)
 70
     0
 40
0.5
 41
2.5
340
60
342
EC
  0
DIMSTYLE
105
10C
330
A
100
AcDbSymbolTableRecord
100
AcDbDimStyleTableRecord
  2
Large (ISO)
 70
     0
 40
0.5
 41
5.0
340
60
342
EC
  0
ENDTAB
  0
TABLE
  2
BLOCK_RECORD
  5
1
330
0
100
AcDbSymbolTable
 70
    20
  0
BLOCK_RECORD
  5
77
102
{ACAD_XDICTIONARY
360
FCB
102
}
330
1
100
AcDbSymbolTableRecord
100
AcDbBlockTableRecord
  2
*Model_Space
340
7A
  0
BLOCK_RECORD
  5
73
330
1
100
AcDbSymbolTableRecord
100
AcDbBlockTableRecord
  2
*Paper_Space
340
76
  0
BLOCK_RECORD
  5
7B
330
1
100
AcDbSymbolTableRecord
100
AcDbBlockTableRecord
  2
*Paper_Space0
340
7E
  0
BLOCK_RECORD
  5
EC
330
1
100
AcDbSymbolTableRecord
100
AcDbBlockTableRecord
  2
_Closed
340
0
  0
BLOCK_RECORD
  5
F3
330
1
100
AcDbSymbolTableRecord
100
AcDbBlockTableRecord
  2
DatumFilled45
340
0
  0
BLOCK_RECORD
  5
FE
330
1
100
AcDbSymbolTableRecord
100
AcDbBlockTableRecord
  2
Filled-1
340
0
  0
BLOCK_RECORD
  5
10D
330
1
100
AcDbSymbolTableRecord
100
AcDbBlockTableRecord
  2
Title Blocks Makerrbeam title
340
0
102
{BLKREFS
331
150
102
}
  0
BLOCK_RECORD
  5
154
330
1
100
AcDbSymbolTableRecord
100
AcDbBlockTableRecord
  2
Borders Makerbeam A4
340
0
102
{BLKREFS
331
15B
102
}
  0
BLOCK_RECORD
  5
374
330
1
100
AcDbSymbolTableRecord
100
AcDbBlockTableRecord
  2
*D6
340
0
  0
BLOCK_RECORD
  5
472
330
1
100
AcDbSymbolTableRecord
100
AcDbBlockTableRecord
  2
*D7
340
0
  0
BLOCK_RECORD
  5
548
330
1
100
AcDbSymbolTableRecord
100
AcDbBlockTableRecord
  2
*D8
340
0
  0
BLOCK_RECORD
  5
62A
330
1
100
AcDbSymbolTableRecord
100
AcDbBlockTableRecord
  2
*D9
340
0
  0
BLOCK_RECORD
  5
70C
330
1
100
AcDbSymbolTableRecord
100
AcDbBlockTableRecord
  2
*D10
340
0
  0
BLOCK_RECORD
  5
7E2
330
1
100
AcDbSymbolTableRecord
100
AcDbBlockTableRecord
  2
*D11
340
0
  0
BLOCK_RECORD
  5
8B8
330
1
100
AcDbSymbolTableRecord
100
AcDbBlockTableRecord
  2
*D12
340
0
  0
BLOCK_RECORD
  5
99A
330
1
100
AcDbSymbolTableRecord
100
AcDbBlockTableRecord
  2
*D13
340
0
  0
BLOCK_RECORD
  5
A70
330
1
100
AcDbSymbolTableRecord
100
AcDbBlockTableRecord
  2
*D14
340
0
  0
BLOCK_RECORD
  5
B52
330
1
100
AcDbSymbolTableRecord
100
AcDbBlockTableRecord
  2
*D15
340
0
  0
BLOCK_RECORD
  5
C34
330
1
100
AcDbSymbolTableRecord
100
AcDbBlockTableRecord
  2
*D16
340
0
  0
BLOCK_RECORD
  5
D16
330
1
100
AcDbSymbolTableRecord
100
AcDbBlockTableRecord
  2
*D17
340
0
  0
BLOCK_RECORD
  5
DEC
330
1
100
AcDbSymbolTableRecord
100
AcDbBlockTableRecord
  2
*D18
340
0
  0
BLOCK_RECORD
  5
ECC
330
1
100
AcDbSymbolTableRecord
100
AcDbBlockTableRecord
  2
*D19
340
0
  0
ENDTAB
  0
ENDSEC
  0
SECTION
  2
BLOCKS
  0
BLOCK
  5
78
330
77
100
AcDbEntity
  8
0
100
AcDbBlockBegin
  2
*Model_Space
 70
     0
 10
0.0
 20
0.0
 30
0.0
  3
*Model_Space
  1

  0
ENDBLK
  5
79
330
77
100
AcDbEntity
  8
0
100
AcDbBlockEnd
  0
BLOCK
  5
74
330
73
100
AcDbEntity
 67
     1
  8
0
100
AcDbBlockBegin
  2
*Paper_Space
 70
     0
 10
0.0
 20
0.0
 30
0.0
  3
*Paper_Space
  1

  0
ENDBLK
  5
75
330
73
100
AcDbEntity
 67
     1
  8
0
100
AcDbBlockEnd
  0
BLOCK
  5
7C
330
7B
100
AcDbEntity
 67
     1
  8
0
100
AcDbBlockBegin
  2
*Paper_Space0
 70
     0
 10
0.0
 20
0.0
 30
0.0
  3
*Paper_Space0
  1

  0
ENDBLK
  5
7D
330
7B
100
AcDbEntity
 67
     1
  8
0
100
AcDbBlockEnd
  0
BLOCK
  5
F1
330
EC
100
AcDbEntity
  8
0
100
AcDbBlockBegin
  2
_Closed
 70
     0
 10
0.0
 20
0.0
 30
0.0
  3
_Closed
  1

  0
LINE
  5
ED
330
EC
100
AcDbEntity
  8
0
  6
ByBlock
 62
     0
370
    -2
100
AcDbLine
 10
-1.0
 20
0.1666666666666666
 30
0.0
 11
0.0
 21
0.0
 31
0.0
  0
LINE
  5
EE
330
EC
100
AcDbEntity
  8
0
  6
ByBlock
 62
     0
370
    -2
100
AcDbLine
 10
0.0
 20
0.0
 30
0.0
 11
-1.0
 21
-0.1666666666666666
 31
0.0
  0
LINE
  5
EF
330
EC
100
AcDbEntity
  8
0
  6
ByBlock
 62
     0
370
    -2
100
AcDbLine
 10
-1.0
 20
0.1666666666666666
 30
0.0
 11
-1.0
 21
-0.1666666666666666
 31
0.0
  0
LINE
  5
F0
330
EC
100
AcDbEntity
  8
0
  6
ByBlock
 62
     0
370
    -2
100
AcDbLine
 10
0.0
 20
0.0
 30
0.0
 11
-1.0
 21
0.0
 31
0.0
  0
ENDBLK
  5
F2
330
EC
100
AcDbEntity
  8
0
100
AcDbBlockEnd
  0
BLOCK
  5
F4
330
F3
100
AcDbEntity
  8
0
100
AcDbBlockBegin
  2
DatumFilled45
 70
     0
 10
0.0
 20
0.0
 30
0.0
  3
DatumFilled45
  1

  0
POLYLINE
  5
F6
330
F3
100
AcDbEntity
  8
0
 62
     0
100
AcDb2dPolyline
 66
     1
 10
0.0
 20
0.0
 30
0.0
 70
   128
  0
VERTEX
  5
F7
330
F6
100
AcDbEntity
  8
0
 62
     0
100
AcDbVertex
100
AcDb2dVertex
 10
0.0
 20
1.0
 30
0.0
  0
VERTEX
  5
F8
330
F6
100
AcDbEntity
  8
0
 62
     0
100
AcDbVertex
100
AcDb2dVertex
 10
0.0
 20
-1.0
 30
0.0
  0
VERTEX
  5
FA
330
F6
100
AcDbEntity
  8
0
 62
     0
100
AcDbVertex
100
AcDb2dVertex
 10
-1.0
 20
0.0
 30
0.0
  0
VERTEX
  5
FB
330
F6
100
AcDbEntity
  8
0
 62
     0
100
AcDbVertex
100
AcDb2dVertex
 10
0.0
 20
1.0
 30
0.0
  0
SEQEND
  5
F9
330
F6
100
AcDbEntity
  8
0
 62
     0
  0
SOLID
  5
FC
330
F3
100
AcDbEntity
  8
0
 62
     0
100
AcDbTrace
 10
0.0
 20
1.0
 30
0.0
 11
0.0
 21
-1.0
 31
0.0
 12
-1.0
 22
0.0
 32
0.0
 13
0.0
 23
1.0
 33
0.0
  0
ENDBLK
  5
F5
330
F3
100
AcDbEntity
  8
0
100
AcDbBlockEnd
  0
BLOCK
  5
FF
330
FE
100
AcDbEntity
  8
0
100
AcDbBlockBegin
  2
Filled-1
 70
     0
 10
0.0
 20
0.0
 30
0.0
  3
Filled-1
  1

  0
LINE
  5
101
330
FE
100
AcDbEntity
  8
0
 62
     0
100
AcDbLine
 10
-1.0
 20
0.0
 30
0.0
 11
0.0
 21
0.0
 31
0.0
  0
POLYLINE
  5
102
330
FE
100
AcDbEntity
  8
0
 62
     0
100
AcDb2dPolyline
 66
     1
 10
0.0
 20
0.0
 30
0.0
 70
   128
  0
VERTEX
  5
103
330
102
100
AcDbEntity
  8
0
 62
     0
100
AcDbVertex
100
AcDb2dVertex
 10
-1.0
 20
-0.1
 30
0.0
  0
VERTEX
  5
104
330
102
100
AcDbEntity
  8
0
 62
     0
100
AcDbVertex
100
AcDb2dVertex
 10
0.0
 20
0.0
 30
0.0
  0
VERTEX
  5
106
330
102
100
AcDbEntity
  8
0
 62
     0
100
AcDbVertex
100
AcDb2dVertex
 10
-1.0
 20
0.1
 30
0.0
  0
VERTEX
  5
107
330
102
100
AcDbEntity
  8
0
 62
     0
100
AcDbVertex
100
AcDb2dVertex
 10
-1.0
 20
-0.1
 30
0.0
  0
SEQEND
  5
105
330
102
100
AcDbEntity
  8
0
 62
     0
  0
SOLID
  5
108
330
FE
100
AcDbEntity
  8
0
 62
     0
100
AcDbTrace
 10
-1.0
 20
-0.1
 30
0.0
 11
0.0
 21
0.0
 31
0.0
 12
-1.0
 22
0.1
 32
0.0
 13
-1.0
 23
-0.1
 33
0.0
  0
LINE
  5
109
330
FE
100
AcDbEntity
  8
0
 62
     0
100
AcDbLine
 10
-1.0
 20
-0.1
 30
0.0
 11
0.0
 21
0.0
 31
0.0
  0
LINE
  5
10A
330
FE
100
AcDbEntity
  8
0
 62
     0
100
AcDbLine
 10
0.0
 20
0.0
 30
0.0
 11
-1.0
 21
0.1
 31
0.0
  0
LINE
  5
10B
330
FE
100
AcDbEntity
  8
0
 62
     0
100
AcDbLine
 10
-1.0
 20
0.1
 30
0.0
 11
-1.0
 21
-0.1
 31
0.0
  0
ENDBLK
  5
100
330
FE
100
AcDbEntity
  8
0
100
AcDbBlockEnd
  0
BLOCK
  5
10E
330
10D
100
AcDbEntity
  8
0
100
AcDbBlockBegin
  2
Title Blocks Makerrbeam title
 70
     2
 10
0.0
 20
0.0
 30
0.0
  3
Title Blocks Makerrbeam title
  1

  0
IMAGE
  5
110
330
10D
100
AcDbEntity
  8
0
 92
      140
310
8C00000001000000840000000600000005000000D0E750DDF27D6B407CD48E543E2643400000000000000000A7E750DDF27D6B40A6D2B55107D3484000000000000000004C9942D44C136F40A6D2B55107D348400000000000000000759942D44C136F407CD48E543E2643400000000000000000D0E750DDF27D6B407CD48E
310
543E2643400000000000000000
100
AcDbRasterImage
 90
        0
 10
219.9358965473352
 20
38.29877716993448
 30
0.0
 11
0.1170091102446671
 21
0.0
 31
0.0
 12
-0.0000000000000121
 22
0.1170091102446671
 32
0.0
 13
245.0
 23
97.0
340
112
 70
     7
280
     0
281
    50
282
    50
283
     0
360
113
 71
     1
 91
        2
 14
-0.5
 24
-0.5
 14
244.5
 24
96.5
  0
LINE
  5
114
330
10D
100
AcDbEntity
  8
Title (ISO)
100
AcDbLine
 10
249.4080149940401
 20
59.37007064954049
 30
0.0
 11
249.4080149940402
 21
35.37007064954058
 31
0.0
  0
LINE
  5
115
330
10D
100
AcDbEntity
  8
Title (ISO)
100
AcDbLine
 10
69.40801499404009
 20
35.37007064954038
 30
0.0
 11
69.40801499404006
 21
59.37007064954032
 31
0.0
  0
LINE
  5
116
330
10D
100
AcDbEntity
  8
Title (ISO)
100
AcDbLine
 10
129.4080149940401
 20
59.37007064954045
 30
0.0
 11
129.4080149940401
 21
35.37007064954038
 31
0.0
  0
LINE
  5
117
330
10D
100
AcDbEntity
  8
Title (ISO)
100
AcDbLine
 10
129.4080149940401
 20
35.37007064954038
 30
0.0
 11
69.40801499404
 21
35.37007064954032
 31
0.0
  0
LINE
  5
118
330
10D
100
AcDbEntity
  8
Title (ISO)
100
AcDbLine
 10
129.4080149940401
 20
35.37007064954038
 30
0.0
 11
189.4080149940401
 21
35.37007064954045
 31
0.0
  0
LINE
  5
119
330
10D
100
AcDbEntity
  8
Title (ISO)
100
AcDbLine
 10
189.4080149940401
 20
35.37007064954045
 30
0.0
 11
189.40801499404
 21
59.37007064954041
 31
0.0
  0
LINE
  5
11A
330
10D
100
AcDbEntity
  8
Title (ISO)
100
AcDbLine
 10
189.4080149940401
 20
35.37007064954045
 30
0.0
 11
249.4080149940399
 21
35.37007064954055
 31
0.0
  0
LINE
  5
11B
330
10D
100
AcDbEntity
  8
Title (ISO)
100
AcDbLine
 10
189.4080149940401
 20
51.3700706495404
 30
0.0
 11
249.4080149940401
 21
51.37007064954048
 31
0.0
  0
CIRCLE
  5
11C
330
10D
100
AcDbEntity
  8
Title (ISO)
100
AcDbCircle
 10
166.9624124952159
 20
49.87007064954044
 30
0.0
 40
3.999999999999999
  0
CIRCLE
  5
11D
330
10D
100
AcDbEntity
  8
Title (ISO)
100
AcDbCircle
 10
166.9624124952159
 20
49.87007064954044
 30
0.0
 40
2.500000000000012
  0
LINE
  5
11E
330
10D
100
AcDbEntity
  8
Title (ISO)
100
AcDbLine
 10
174.962412495216
 20
52.37007064954044
 30
0.0
 11
174.962412495216
 21
47.37007064954044
 31
0.0
  0
LINE
  5
11F
330
10D
100
AcDbEntity
  8
Title (ISO)
100
AcDbLine
 10
174.962412495216
 20
47.37007064954044
 30
0.0
 11
183.4790269490084
 21
45.87007064954044
 31
0.0
  0
LINE
  5
120
330
10D
100
AcDbEntity
  8
Title (ISO)
100
AcDbLine
 10
183.4790269490084
 20
45.87007064954044
 30
0.0
 11
183.4790269490084
 21
53.87007064954044
 31
0.0
  0
LINE
  5
121
330
10D
100
AcDbEntity
  8
Title (ISO)
100
AcDbLine
 10
183.4790269490084
 20
53.87007064954044
 30
0.0
 11
174.962412495216
 21
52.37007064954044
 31
0.0
  0
LINE
  5
122
330
10D
100
AcDbEntity
  8
Title (ISO)
  6
LONG_DASH_DOTTED
 48
12.5814561843872
100
AcDbLine
 10
166.9624124952159
 20
54.66524146305241
 30
0.0
 11
166.9624124952159
 21
45.07489983602847
 31
0.0
  0
LINE
  5
123
330
10D
100
AcDbEntity
  8
Title (ISO)
  6
LONG_DASH_DOTTED
 48
12.5814561843872
100
AcDbLine
 10
171.7575833087279
 20
49.87007064954044
 30
0.0
 11
162.1672416817039
 21
49.87007064954044
 31
0.0
  0
LINE
  5
124
330
10D
100
AcDbEntity
  8
Title (ISO)
100
AcDbLine
 10
69.40801499404007
 20
51.37007064954033
 30
0.0
 11
129.4080149940401
 21
51.37007064954044
 31
0.0
  0
LINE
  5
125
330
10D
100
AcDbEntity
  8
Title (ISO)
100
AcDbLine
 10
69.40801499404009
 20
43.37007064954033
 30
0.0
 11
129.4080149940401
 21
43.37007064954035
 31
0.0
  0
LINE
  5
126
330
10D
100
AcDbEntity
  8
Title (ISO)
  6
LONG_DASH_DOTTED
 48
13.66601085662842
100
AcDbLine
 10
174.3074104866459
 20
49.87007064954044
 30
0.0
 11
184.724458075183
 21
49.87007064954045
 31
0.0
  0
LINE
  5
127
330
10D
100
AcDbEntity
  8
Title (ISO)
100
AcDbLine
 10
249.4080149940401
 20
60.68706259957083
 30
0.0
 11
249.40801499404
 21
67.37007064954056
 31
0.0
  0
LINE
  5
128
330
10D
100
AcDbEntity
  8
Title (ISO)
100
AcDbLine
 10
249.40801499404
 20
67.37007064954056
 30
0.0
 11
69.40801499404003
 21
67.37007064954037
 31
0.0
  0
LINE
  5
129
330
10D
100
AcDbEntity
  8
Title (ISO)
100
AcDbLine
 10
69.40801499404004
 20
67.37007064954037
 30
0.0
 11
69.40801499404006
 21
59.37007064954032
 31
0.0
  0
LINE
  5
12A
330
10D
100
AcDbEntity
  8
Title (ISO)
100
AcDbLine
 10
69.40801499404009
 20
35.37007064954038
 30
0.0
 11
249.4080149940402
 21
35.37007064954058
 31
0.0
  0
LINE
  5
12B
330
10D
100
AcDbEntity
  8
Title (ISO)
100
AcDbLine
 10
69.40801499404004
 20
67.37007064954037
 30
0.0
 11
159.40801499404
 21
67.37007064954037
 31
0.0
  0
LINE
  5
12C
330
10D
100
AcDbEntity
  8
Title (ISO)
100
AcDbLine
 10
159.40801499404
 20
67.37007064954037
 30
0.0
 11
159.40801499404
 21
75.37007064954038
 31
0.0
  0
LINE
  5
12D
330
10D
100
AcDbEntity
  8
Title (ISO)
100
AcDbLine
 10
159.40801499404
 20
75.37007064954038
 30
0.0
 11
69.40801499404004
 21
75.37007064954036
 31
0.0
  0
LINE
  5
12E
330
10D
100
AcDbEntity
  8
Title (ISO)
100
AcDbLine
 10
69.40801499404004
 20
75.37007064954036
 30
0.0
 11
69.40801499404004
 21
67.37007064954037
 31
0.0
  0
LINE
  5
12F
330
10D
100
AcDbEntity
  8
Title (ISO)
100
AcDbLine
 10
159.40801499404
 20
75.37007064954038
 30
0.0
 11
249.4080149940401
 21
75.37007064954038
 31
0.0
  0
LINE
  5
130
330
10D
100
AcDbEntity
  8
Title (ISO)
100
AcDbLine
 10
249.4080149940401
 20
75.37007064954038
 30
0.0
 11
249.40801499404
 21
67.37007064954056
 31
0.0
  0
LINE
  5
131
330
10D
100
AcDbEntity
  8
Title (ISO)
100
AcDbLine
 10
249.40801499404
 20
67.37007064954056
 30
0.0
 11
159.40801499404
 21
67.37007064954056
 31
0.0
  0
LINE
  5
132
330
10D
100
AcDbEntity
  8
Title (ISO)
100
AcDbLine
 10
159.40801499404
 20
67.37007064954056
 30
0.0
 11
159.40801499404
 21
75.37007064954038
 31
0.0
  0
LINE
  5
133
330
10D
100
AcDbEntity
  8
Title (ISO)
100
AcDbLine
 10
69.40801499404006
 20
59.37007064954032
 30
0.0
 11
129.4080149940401
 21
59.37007064954045
 31
0.0
  0
LINE
  5
134
330
10D
100
AcDbEntity
  8
Title (ISO)
100
AcDbLine
 10
159.40801499404
 20
67.37007064954056
 30
0.0
 11
159.40801499404
 21
59.37007064954038
 31
0.0
  0
LINE
  5
135
330
10D
100
AcDbEntity
  8
Title (ISO)
100
AcDbLine
 10
159.40801499404
 20
59.37007064954038
 30
0.0
 11
129.4080149940401
 21
59.37007064954045
 31
0.0
  0
LINE
  5
136
330
10D
100
AcDbEntity
  8
Title (ISO)
100
AcDbLine
 10
159.40801499404
 20
59.37007064954038
 30
0.0
 11
249.4080149940401
 21
59.37007064954049
 31
0.0
  0
LINE
  5
137
330
10D
100
AcDbEntity
  8
Title (ISO)
100
AcDbLine
 10
129.4080149940401
 20
43.37007064954035
 30
0.0
 11
189.4080149940401
 21
43.37007064954044
 31
0.0
  0
LINE
  5
138
330
10D
100
AcDbEntity
  8
Title (ISO)
100
AcDbLine
 10
219.4080149940401
 20
51.37007064954044
 30
0.0
 11
219.4080149940401
 21
35.37007064954055
 31
0.0
  0
MTEXT
  5
139
330
10D
100
AcDbEntity
  8
Title (ISO)
 62
     7
100
AcDbMText
 10
132.3003554919998
 20
53.87007064954044
 30
0.0
 40
3.499999940395355
 41
0.0
 71
     7
 72
     1
  1
\fArial|b1|i0;\H3.5000;America
  7
Title Block 1.5
 73
     1
 44
1.0
1001
ACAD
1000
MTEXTBEGIN
1070
    73
1070
     1
1070
    44
1040
1.0
1070
    74
1070
     0
1000
MTEXTEND
  0
MTEXT
  5
13B
330
10D
100
AcDbEntity
  8
Title (ISO)
 62
     7
100
AcDbMText
 10
71.40801499404007
 20
73.27759673247266
 30
0.0
 40
3.499999940395355
 41
0.0
 71
     1
 72
     1
  1
\fArial|b1|i0;\H3.5000;Title: T bracket XL
  7
Title Block 4
 73
     1
 44
1.0
1001
ACAD
1000
MTEXTBEGIN
1070
    73
1070
     1
1070
    44
1040
1.0
1070
    74
1070
     0
1000
MTEXTEND
  0
MTEXT
  5
13C
330
10D
100
AcDbEntity
  8
Title (ISO)
 62
     7
100
AcDbMText
 10
132.3003554919998
 20
40.94228583550064
 30
0.0
 40
3.499999940395355
 41
52.67365059307476
 71
     1
 72
     1
  1
\fArial|b1|i0;\H3.5000;Weight:  0,013 kg
  7
Title Block 3
 73
     1
 44
1.0
1001
ACAD
1000
MTEXTBEGIN
1070
    73
1070
     1
1070
    44
1040
1.0
1070
    74
1070
     0
1000
MTEXTEND
  0
MTEXT
  5
13D
330
10D
100
AcDbEntity
  8
Title (ISO)
 62
     7
100
AcDbMText
 10
218.5684773262463
 20
58.4880729712216
 30
0.0
 40
2.5
 41
53.92186686396598
 71
     1
 72
     1
  1
\fArial|b1|i0;\W0.65;\H2.5000;25=±0,5
  7
Title Block 3
 73
     1
 44
1.0
1001
ACAD
1000
MTEXTBEGIN
1070
    73
1070
     1
1070
    44
1040
1.0
1070
    74
1070
     0
1000
MTEXTEND
  0
MTEXT
  5
13E
330
10D
100
AcDbEntity
  8
Title (ISO)
 62
     7
100
AcDbMText
 10
71.40801499404007
 20
53.52262756392994
 30
0.0
 40
3.499999940395355
 41
0.0
 71
     7
 72
     1
  1
\fArial|b1|i0;\H3.5000;Scale:
  7
Title Block 1.5
 73
     1
 44
1.0
1001
ACAD
1000
MTEXTBEGIN
1070
    73
1070
     1
1070
    44
1040
1.0
1070
    74
1070
     0
1000
MTEXTEND
  0
MTEXT
  5
13F
330
10D
100
AcDbEntity
  8
Title (ISO)
 62
     7
100
AcDbMText
 10
92.40801499404007
 20
53.52262756392994
 30
0.0
 40
3.499999940395355
 41
0.0
 71
     7
 72
     1
  1
\fArial|b1|i0;\H3.5000;2.5:1
  7
Title Block 1.5
 73
     1
 44
1.0
1001
ACAD
1000
MTEXTBEGIN
1070
    73
1070
     1
1070
    44
1040
1.0
1070
    74
1070
     0
1000
MTEXTEND
  0
MTEXT
  5
140
330
10D
100
AcDbEntity
  8
Title (ISO)
 62
     7
100
AcDbMText
 10
71.40801499404009
 20
45.18261095775527
 30
0.0
 40
3.499999940395355
 41
0.0
 71
     7
 72
     1
  1
\fArial|b1|i0;\H3.5000;Date:
  7
Title Block 1.5
 73
     1
 44
1.0
1001
ACAD
1000
MTEXTBEGIN
1070
    73
1070
     1
1070
    44
1040
1.0
1070
    74
1070
     0
1000
MTEXTEND
  0
MTEXT
  5
141
330
10D
100
AcDbEntity
  8
Title (ISO)
 62
     7
100
AcDbMText
 10
71.40801499404007
 20
36.93953198595445
 30
0.0
 40
3.499999940395355
 41
0.0
 71
     7
 72
     1
  1
\fArial|b1|i0;\H3.5000;Dimension:
  7
Title Block 1.5
 73
     1
 44
1.0
1001
ACAD
1000
MTEXTBEGIN
1070
    73
1070
     1
1070
    44
1040
1.0
1070
    74
1070
     0
1000
MTEXTEND
  0
MTEXT
  5
142
330
10D
100
AcDbEntity
  8
Title (ISO)
 62
     7
100
AcDbMText
 10
101.4080149940401
 20
36.93953198595445
 30
0.0
 40
3.499999940395355
 41
0.0
 71
     7
 72
     1
  1
\fArial|b1|i0;\H3.5000;mm
  7
Title Block 1.5
 73
     1
 44
1.0
1001
ACAD
1000
MTEXTBEGIN
1070
    73
1070
     1
1070
    44
1040
1.0
1070
    74
1070
     0
1000
MTEXTEND
  0
MTEXT
  5
143
330
10D
100
AcDbEntity
  8
Title (ISO)
 62
     7
100
AcDbMText
 10
190.8808356640163
 20
45.39552080773841
 30
0.0
 40
3.499999940395355
 41
0.0
 71
     1
 72
     1
  1
\fArial|b1|i0;\H3.5000;Format: A4
  7
Title Block 3
 73
     1
 44
1.0
1001
ACAD
1000
MTEXTBEGIN
1070
    73
1070
     1
1070
    44
1040
1.0
1070
    74
1070
     0
1000
MTEXTEND
  0
MTEXT
  5
144
330
10D
100
AcDbEntity
  8
Title (ISO)
 62
     7
100
AcDbMText
 10
191.4947389806583
 20
53.87007064954044
 30
0.0
 40
3.000000119209289
 41
0.0
 71
     7
 72
     1
  1
\fArial|b1|i0;\H3.0000;Tolerance:
  7
Title Block 1.5
 73
     1
 44
1.0
1001
ACAD
1000
MTEXTBEGIN
1070
    73
1070
     1
1070
    44
1040
1.0
1070
    74
1070
     0
1000
MTEXTEND
  0
MTEXT
  5
145
330
10D
100
AcDbEntity
  8
Title (ISO)
 62
     7
100
AcDbMText
 10
161.40801499404
 20
73.27759673247266
 30
0.0
 40
3.499999940395355
 41
0.0
 71
     1
 72
     1
  1
\fArial|b1|i0;\H3.5000;Article number: 103004
  7
Title Block 4
 73
     1
 44
1.0
1001
ACAD
1000
MTEXTBEGIN
1070
    73
1070
     1
1070
    44
1040
1.0
1070
    74
1070
     0
1000
MTEXTEND
  0
MTEXT
  5
146
330
10D
100
AcDbEntity
  8
Title (ISO)
 62
     7
100
AcDbMText
 10
71.40801499403996
 20
64.88661624647083
 30
0.0
 40
3.499999940395355
 41
0.0
 71
     1
 72
     1
  1
\fArial|b1|i0;\H3.5000;Description: Plate 1,5 mm
  7
Title Block 4
 73
     1
 44
1.0
1001
ACAD
1000
MTEXTBEGIN
1070
    73
1070
     1
1070
    44
1040
1.0
1070
    74
1070
     0
1000
MTEXTEND
  0
MTEXT
  5
147
330
10D
100
AcDbEntity
  8
Title (ISO)
 62
     7
100
AcDbMText
 10
161.40801499404
 20
64.88661624647083
 30
0.0
 40
3.499999940395355
 41
0.0
 71
     1
 72
     1
  1
\fArial|b1|i0;\H3.5000;Material: Stainless Steel
  7
Title Block 4
 73
     1
 44
1.0
1001
ACAD
1000
MTEXTBEGIN
1070
    73
1070
     1
1070
    44
1040
1.0
1070
    74
1070
     0
1000
MTEXTEND
  0
MTEXT
  5
148
330
10D
100
AcDbEntity
  8
Title (ISO)
 62
     7
100
AcDbMText
 10
218.5684773262463
 20
54.66524146305241
 30
0.0
 40
2.5
 41
53.92186686396598
 71
     1
 72
     1
  1
\fArial|b1|i0;\W0.65;\H2.5000;25,0=±0,05
  7
Title Block 3
 73
     1
 44
1.0
1001
ACAD
1000
MTEXTBEGIN
1070
    73
1070
     1
1070
    44
1040
1.0
1070
    74
1070
     0
1000
MTEXTEND
  0
MTEXT
  5
149
330
10D
100
AcDbEntity
  8
Title (ISO)
100
AcDbMText
 10
132.3003554919998
 20
49.87007064954044
 30
0.0
 40
3.499999940395355
 41
25.53506135940552
 71
     1
 72
     1
  1
\fArial|b1|i0;\H3.5000;Projection:
  7
Note Text (ISO)
 73
     1
 44
1.0
1001
ACAD
1000
MTEXTBEGIN
1070
    73
1070
     1
1070
    44
1040
1.0
1070
    74
1070
     0
1000
MTEXTEND
  0
ATTDEF
  5
14C
102
{ACAD_XDICTIONARY
360
FD8
102
}
330
10D
100
AcDbEntity
  8
Title (ISO)
 62
     7
100
AcDbText
 10
92.02124828848479
 20
45.47278431154657
 30
0.0
 40
3.499999940395355
  1
18-4-2017
  7
Text Style289
100
AcDbAttributeDefinition
  3
CREATION DATE
  2
CREATION_DATE_001
 70
     0
  0
ENDBLK
  5
10F
330
10D
100
AcDbEntity
  8
0
100
AcDbBlockEnd
  0
BLOCK
  5
155
330
154
100
AcDbEntity
  8
0
100
AcDbBlockBegin
  2
Borders Makerbeam A4
 70
     0
 10
0.0
 20
0.0
 30
0.0
  3
Borders Makerbeam A4
  1

  0
LINE
  5
157
330
154
100
AcDbEntity
  8
Title Block Outline
100
AcDbLine
 10
17.5
 20
287.0
 30
0.0
 11
197.5
 21
287.0
 31
0.0
  0
LINE
  5
158
330
154
100
AcDbEntity
  8
Title Block Outline
100
AcDbLine
 10
197.5
 20
287.0
 30
0.0
 11
197.5
 21
10.00000000000003
 31
0.0
  0
LINE
  5
159
330
154
100
AcDbEntity
  8
Title Block Outline
100
AcDbLine
 10
197.5
 20
10.00000000000002
 30
0.0
 11
17.50000000000007
 21
9.999999999999998
 31
0.0
  0
LINE
  5
15A
330
154
100
AcDbEntity
  8
Title Block Outline
100
AcDbLine
 10
17.50000000000005
 20
9.999999999999998
 30
0.0
 11
17.5
 21
287.0
 31
0.0
  0
ENDBLK
  5
156
330
154
100
AcDbEntity
  8
0
100
AcDbBlockEnd
  0
BLOCK
  5
375
330
374
100
AcDbEntity
  8
0
100
AcDbBlockBegin
  2
*D6
 70
     1
 10
0.0
 20
0.0
 30
0.0
  3
*D6
  1

  0
LINE
  5
466
330
374
100
AcDbEntity
  8
Dimension (ISO)
100
AcDbLine
 10
84.3371578895263
 20
46.36293347059885
 30
0.0
 11
84.3371578895263
 21
41.1679101354731
 31
0.0
  0
LINE
  5
467
330
374
100
AcDbEntity
  8
Dimension (ISO)
100
AcDbLine
 10
85.8371578895263
 20
46.36293347059885
 30
0.0
 11
85.8371578895263
 21
41.1679101354731
 31
0.0
  0
LINE
  5
468
330
374
100
AcDbEntity
  8
Dimension (ISO)
100
AcDbLine
 10
87.0871578895263
 20
42.7554101354731
 30
0.0
 11
88.3371578895263
 21
42.7554101354731
 31
0.0
  0
LINE
  5
469
330
374
100
AcDbEntity
  8
Dimension (ISO)
100
AcDbLine
 10
83.0871578895263
 20
42.7554101354731
 30
0.0
 11
78.10991275856594
 21
42.7554101354731
 31
0.0
  0
LINE
  5
46A
330
374
100
AcDbEntity
  8
Dimension (ISO)
100
AcDbLine
 10
85.8371578895263
 20
42.7554101354731
 30
0.0
 11
84.3371578895263
 21
42.7554101354731
 31
0.0
  0
SOLID
  5
46B
330
374
100
AcDbEntity
  8
Dimension (ISO)
100
AcDbTrace
 10
87.0871578895263
 20
42.96374346880643
 30
0.0
 11
87.0871578895263
 21
42.54707680213976
 31
0.0
 12
85.8371578895263
 22
42.7554101354731
 32
0.0
 13
85.8371578895263
 23
42.7554101354731
 33
0.0
  0
SOLID
  5
46C
330
374
100
AcDbEntity
  8
Dimension (ISO)
100
AcDbTrace
 10
83.0871578895263
 20
42.96374346880643
 30
0.0
 11
83.0871578895263
 21
42.54707680213976
 31
0.0
 12
84.3371578895263
 22
42.7554101354731
 32
0.0
 13
84.3371578895263
 23
42.7554101354731
 33
0.0
  0
MTEXT
  5
46D
330
374
100
AcDbEntity
  8
Dimension (ISO)
100
AcDbMText
 10
78.49091275856594
 20
45.32714217039585
 30
0.0
 40
1.75
 41
0.0
 71
     1
 72
     1
  1
\A1;1,5
  7
Note Text (ISO)
 73
     1
 44
1.0
1001
ACAD
1000
MTEXTBEGIN
1070
    73
1070
     1
1070
    44
1040
1.0
1070
    74
1070
     0
1000
MTEXTEND
  0
POINT
  5
46E
330
374
100
AcDbEntity
  8
Defpoints
 62
     0
100
AcDbPoint
 10
84.3371578895263
 20
46.36293347059885
 30
0.0
  0
POINT
  5
46F
330
374
100
AcDbEntity
  8
Defpoints
 62
     0
100
AcDbPoint
 10
85.8371578895263
 20
46.36293347059885
 30
0.0
  0
POINT
  5
470
330
374
100
AcDbEntity
  8
Defpoints
 62
     0
100
AcDbPoint
 10
85.8371578895263
 20
42.7554101354731
 30
0.0
  0
ENDBLK
  5
376
330
374
100
AcDbEntity
  8
0
100
AcDbBlockEnd
  0
BLOCK
  5
473
330
472
100
AcDbEntity
  8
0
100
AcDbBlockBegin
  2
*D7
 70
     1
 10
0.0
 20
0.0
 30
0.0
  3
*D7
  1

  0
LINE
  5
53E
330
472
100
AcDbEntity
  8
Dimension (ISO)
100
AcDbLine
 10
59.83199490367455
 20
46.16293347059886
 30
0.0
 11
78.41949490367456
 21
46.16293347059886
 31
0.0
  0
LINE
  5
53F
330
472
100
AcDbEntity
  8
Dimension (ISO)
100
AcDbLine
 10
44.83199490367455
 20
91.16293347059883
 30
0.0
 11
78.41949490367456
 21
91.16293347059883
 31
0.0
  0
LINE
  5
540
330
472
100
AcDbEntity
  8
Dimension (ISO)
100
AcDbLine
 10
76.83199490367456
 20
47.41293347059886
 30
0.0
 11
76.83199490367456
 21
89.91293347059883
 31
0.0
  0
SOLID
  5
541
330
472
100
AcDbEntity
  8
Dimension (ISO)
100
AcDbTrace
 10
76.62366157034124
 20
47.41293347059886
 30
0.0
 11
77.0403282370079
 21
47.41293347059886
 31
0.0
 12
76.83199490367456
 22
46.16293347059886
 32
0.0
 13
76.83199490367456
 23
46.16293347059886
 33
0.0
  0
SOLID
  5
542
330
472
100
AcDbEntity
  8
Dimension (ISO)
100
AcDbTrace
 10
76.62366157034124
 20
89.91293347059883
 30
0.0
 11
77.0403282370079
 21
89.91293347059883
 31
0.0
 12
76.83199490367456
 22
91.16293347059883
 32
0.0
 13
76.83199490367456
 23
91.16293347059883
 33
0.0
  0
MTEXT
  5
543
330
472
100
AcDbEntity
  8
Dimension (ISO)
100
AcDbMText
 10
74.66456105545429
 20
67.44034784266062
 30
0.0
 40
1.75
 41
0.0
 71
     1
 72
     1
  1
\A1;45
  7
Note Text (ISO)
 11
0.0000000000000001
 21
1.0
 31
0.0
 73
     1
 44
1.0
1001
ACAD
1000
MTEXTBEGIN
1070
    73
1070
     1
1070
    44
1040
1.0
1070
    74
1070
     0
1000
MTEXTEND
  0
POINT
  5
544
330
472
100
AcDbEntity
  8
Defpoints
 62
     0
100
AcDbPoint
 10
59.83199490367455
 20
46.16293347059886
 30
0.0
  0
POINT
  5
545
330
472
100
AcDbEntity
  8
Defpoints
 62
     0
100
AcDbPoint
 10
44.83199490367455
 20
91.16293347059883
 30
0.0
  0
POINT
  5
546
330
472
100
AcDbEntity
  8
Defpoints
 62
     0
100
AcDbPoint
 10
76.83199490367456
 20
91.16293347059883
 30
0.0
  0
ENDBLK
  5
474
330
472
100
AcDbEntity
  8
0
100
AcDbBlockEnd
  0
BLOCK
  5
549
330
548
100
AcDbEntity
  8
0
100
AcDbBlockBegin
  2
*D8
 70
     1
 10
0.0
 20
0.0
 30
0.0
  3
*D8
  1

  0
LINE
  5
620
330
548
100
AcDbEntity
  8
Dimension (ISO)
100
AcDbLine
 10
59.83199490367455
 20
46.16293347059886
 30
0.0
 11
66.41949490367458
 21
46.16293347059886
 31
0.0
  0
LINE
  5
621
330
548
100
AcDbEntity
  8
Dimension (ISO)
100
AcDbLine
 10
52.53199490367456
 20
53.66293347059884
 30
0.0
 11
66.41949490367458
 21
53.66293347059884
 31
0.0
  0
LINE
  5
622
330
548
100
AcDbEntity
  8
Dimension (ISO)
100
AcDbLine
 10
64.83199490367458
 20
47.41293347059886
 30
0.0
 11
64.83199490367458
 21
52.41293347059884
 31
0.0
  0
SOLID
  5
623
330
548
100
AcDbEntity
  8
Dimension (ISO)
100
AcDbTrace
 10
64.62366157034125
 20
47.41293347059886
 30
0.0
 11
65.04032823700791
 21
47.41293347059886
 31
0.0
 12
64.83199490367458
 22
46.16293347059886
 32
0.0
 13
64.83199490367458
 23
46.16293347059886
 33
0.0
  0
SOLID
  5
624
330
548
100
AcDbEntity
  8
Dimension (ISO)
100
AcDbTrace
 10
64.62366157034125
 20
52.41293347059884
 30
0.0
 11
65.04032823700791
 21
52.41293347059884
 31
0.0
 12
64.83199490367458
 22
53.66293347059884
 32
0.0
 13
64.83199490367458
 23
53.66293347059884
 33
0.0
  0
MTEXT
  5
625
330
548
100
AcDbEntity
  8
Dimension (ISO)
100
AcDbMText
 10
62.2661392958841
 20
48.3606802805384
 30
0.0
 40
1.75
 41
0.0
 71
     1
 72
     1
  1
\A1;7,5
  7
Note Text (ISO)
 11
0.0000000000000001
 21
1.0
 31
0.0
 73
     1
 44
1.0
1001
ACAD
1000
MTEXTBEGIN
1070
    73
1070
     1
1070
    44
1040
1.0
1070
    74
1070
     0
1000
MTEXTEND
  0
POINT
  5
626
330
548
100
AcDbEntity
  8
Defpoints
 62
     0
100
AcDbPoint
 10
59.83199490367455
 20
46.16293347059886
 30
0.0
  0
POINT
  5
627
330
548
100
AcDbEntity
  8
Defpoints
 62
     0
100
AcDbPoint
 10
52.53199490367456
 20
53.66293347059884
 30
0.0
  0
POINT
  5
628
330
548
100
AcDbEntity
  8
Defpoints
 62
     0
100
AcDbPoint
 10
64.83199490367458
 20
53.66293347059884
 30
0.0
  0
ENDBLK
  5
54A
330
548
100
AcDbEntity
  8
0
100
AcDbBlockEnd
  0
BLOCK
  5
62B
330
62A
100
AcDbEntity
  8
0
100
AcDbBlockBegin
  2
*D9
 70
     1
 10
0.0
 20
0.0
 30
0.0
  3
*D9
  1

  0
LINE
  5
702
330
62A
100
AcDbEntity
  8
Dimension (ISO)
100
AcDbLine
 10
59.83199490367455
 20
61.16293347059884
 30
0.0
 11
69.41949490367459
 21
61.16293347059884
 31
0.0
  0
LINE
  5
703
330
62A
100
AcDbEntity
  8
Dimension (ISO)
100
AcDbLine
 10
59.83199490367455
 20
46.16293347059886
 30
0.0
 11
69.41949490367459
 21
46.16293347059886
 31
0.0
  0
LINE
  5
704
330
62A
100
AcDbEntity
  8
Dimension (ISO)
100
AcDbLine
 10
67.83199490367458
 20
59.91293347059884
 30
0.0
 11
67.83199490367458
 21
47.41293347059886
 31
0.0
  0
SOLID
  5
705
330
62A
100
AcDbEntity
  8
Dimension (ISO)
100
AcDbTrace
 10
67.62366157034126
 20
59.91293347059884
 30
0.0
 11
68.04032823700791
 21
59.91293347059884
 31
0.0
 12
67.83199490367458
 22
61.16293347059884
 32
0.0
 13
67.83199490367458
 23
61.16293347059884
 33
0.0
  0
SOLID
  5
706
330
62A
100
AcDbEntity
  8
Dimension (ISO)
100
AcDbTrace
 10
67.62366157034126
 20
47.41293347059886
 30
0.0
 11
68.04032823700791
 21
47.41293347059886
 31
0.0
 12
67.83199490367458
 22
46.16293347059886
 32
0.0
 13
67.83199490367458
 23
46.16293347059886
 33
0.0
  0
MTEXT
  5
707
330
62A
100
AcDbEntity
  8
Dimension (ISO)
100
AcDbMText
 10
65.65868462832199
 20
52.54964938732147
 30
0.0
 40
1.75
 41
0.0
 71
     1
 72
     1
  1
\A1;15
  7
Note Text (ISO)
 11
0.0000000000000001
 21
1.0
 31
0.0
 73
     1
 44
1.0
1001
ACAD
1000
MTEXTBEGIN
1070
    73
1070
     1
1070
    44
1040
1.0
1070
    74
1070
     0
1000
MTEXTEND
  0
POINT
  5
708
330
62A
100
AcDbEntity
  8
Defpoints
 62
     0
100
AcDbPoint
 10
59.83199490367455
 20
61.16293347059884
 30
0.0
  0
POINT
  5
709
330
62A
100
AcDbEntity
  8
Defpoints
 62
     0
100
AcDbPoint
 10
59.83199490367455
 20
46.16293347059886
 30
0.0
  0
POINT
  5
70A
330
62A
100
AcDbEntity
  8
Defpoints
 62
     0
100
AcDbPoint
 10
67.83199490367458
 20
46.16293347059886
 30
0.0
  0
ENDBLK
  5
62C
330
62A
100
AcDbEntity
  8
0
100
AcDbBlockEnd
  0
BLOCK
  5
70D
330
70C
100
AcDbEntity
  8
0
100
AcDbBlockBegin
  2
*D10
 70
     1
 10
0.0
 20
0.0
 30
0.0
  3
*D10
  1

  0
LINE
  5
7D8
330
70C
100
AcDbEntity
  8
Dimension (ISO)
100
AcDbLine
 10
59.83199490367455
 20
46.16293347059886
 30
0.0
 11
72.41949490367459
 21
46.16293347059886
 31
0.0
  0
LINE
  5
7D9
330
70C
100
AcDbEntity
  8
Dimension (ISO)
100
AcDbLine
 10
37.53199490367456
 20
68.66293347059884
 30
0.0
 11
72.41949490367459
 21
68.66293347059884
 31
0.0
  0
LINE
  5
7DA
330
70C
100
AcDbEntity
  8
Dimension (ISO)
100
AcDbLine
 10
70.83199490367459
 20
47.41293347059886
 30
0.0
 11
70.83199490367459
 21
67.41293347059884
 31
0.0
  0
SOLID
  5
7DB
330
70C
100
AcDbEntity
  8
Dimension (ISO)
100
AcDbTrace
 10
70.62366157034126
 20
47.41293347059886
 30
0.0
 11
71.04032823700791
 21
47.41293347059886
 31
0.0
 12
70.83199490367459
 22
46.16293347059886
 32
0.0
 13
70.83199490367459
 23
46.16293347059886
 33
0.0
  0
SOLID
  5
7DC
330
70C
100
AcDbEntity
  8
Dimension (ISO)
100
AcDbTrace
 10
70.62366157034126
 20
67.41293347059884
 30
0.0
 11
71.04032823700791
 21
67.41293347059884
 31
0.0
 12
70.83199490367459
 22
68.66293347059884
 32
0.0
 13
70.83199490367459
 23
68.66293347059884
 33
0.0
  0
MTEXT
  5
7DD
330
70C
100
AcDbEntity
  8
Dimension (ISO)
100
AcDbMText
 10
68.6645610554543
 20
56.22090526374861
 30
0.0
 40
1.75
 41
0.0
 71
     1
 72
     1
  1
\A1;22
  7
Note Text (ISO)
 11
0.0000000000000001
 21
1.0
 31
0.0
 73
     1
 44
1.0
1001
ACAD
1000
MTEXTBEGIN
1070
    73
1070
     1
1070
    44
1040
1.0
1070
    74
1070
     0
1000
MTEXTEND
  0
POINT
  5
7DE
330
70C
100
AcDbEntity
  8
Defpoints
 62
     0
100
AcDbPoint
 10
59.83199490367455
 20
46.16293347059886
 30
0.0
  0
POINT
  5
7DF
330
70C
100
AcDbEntity
  8
Defpoints
 62
     0
100
AcDbPoint
 10
37.53199490367456
 20
68.66293347059884
 30
0.0
  0
POINT
  5
7E0
330
70C
100
AcDbEntity
  8
Defpoints
 62
     0
100
AcDbPoint
 10
70.83199490367459
 20
68.66293347059884
 30
0.0
  0
ENDBLK
  5
70E
330
70C
100
AcDbEntity
  8
0
100
AcDbBlockEnd
  0
BLOCK
  5
7E3
330
7E2
100
AcDbEntity
  8
0
100
AcDbBlockBegin
  2
*D11
 70
     1
 10
0.0
 20
0.0
 30
0.0
  3
*D11
  1

  0
LINE
  5
8AE
330
7E2
100
AcDbEntity
  8
Dimension (ISO)
100
AcDbLine
 10
59.83199490367455
 20
46.16293347059886
 30
0.0
 11
75.41949490367459
 21
46.16293347059886
 31
0.0
  0
LINE
  5
8AF
330
7E2
100
AcDbEntity
  8
Dimension (ISO)
100
AcDbLine
 10
37.53199490367456
 20
83.66293347059883
 30
0.0
 11
75.41949490367459
 21
83.66293347059883
 31
0.0
  0
LINE
  5
8B0
330
7E2
100
AcDbEntity
  8
Dimension (ISO)
100
AcDbLine
 10
73.83199490367458
 20
47.41293347059886
 30
0.0
 11
73.83199490367458
 21
82.41293347059883
 31
0.0
  0
SOLID
  5
8B1
330
7E2
100
AcDbEntity
  8
Dimension (ISO)
100
AcDbTrace
 10
73.62366157034125
 20
47.41293347059886
 30
0.0
 11
74.04032823700791
 21
47.41293347059886
 31
0.0
 12
73.83199490367458
 22
46.16293347059886
 32
0.0
 13
73.83199490367458
 23
46.16293347059886
 33
0.0
  0
SOLID
  5
8B2
330
7E2
100
AcDbEntity
  8
Dimension (ISO)
100
AcDbTrace
 10
73.62366157034125
 20
82.41293347059883
 30
0.0
 11
74.04032823700791
 21
82.41293347059883
 31
0.0
 12
73.83199490367458
 22
83.66293347059883
 32
0.0
 13
73.83199490367458
 23
83.66293347059883
 33
0.0
  0
MTEXT
  5
8B3
330
7E2
100
AcDbEntity
  8
Dimension (ISO)
100
AcDbMText
 10
71.628127207234
 20
63.70445126777815
 30
0.0
 40
1.75
 41
0.0
 71
     1
 72
     1
  1
\A1;37
  7
Note Text (ISO)
 11
0.0000000000000001
 21
1.0
 31
0.0
 73
     1
 44
1.0
1001
ACAD
1000
MTEXTBEGIN
1070
    73
1070
     1
1070
    44
1040
1.0
1070
    74
1070
     0
1000
MTEXTEND
  0
POINT
  5
8B4
330
7E2
100
AcDbEntity
  8
Defpoints
 62
     0
100
AcDbPoint
 10
59.83199490367455
 20
46.16293347059886
 30
0.0
  0
POINT
  5
8B5
330
7E2
100
AcDbEntity
  8
Defpoints
 62
     0
100
AcDbPoint
 10
37.53199490367456
 20
83.66293347059883
 30
0.0
  0
POINT
  5
8B6
330
7E2
100
AcDbEntity
  8
Defpoints
 62
     0
100
AcDbPoint
 10
73.83199490367458
 20
83.66293347059883
 30
0.0
  0
ENDBLK
  5
7E4
330
7E2
100
AcDbEntity
  8
0
100
AcDbBlockEnd
  0
BLOCK
  5
8B9
330
8B8
100
AcDbEntity
  8
0
100
AcDbBlockBegin
  2
*D12
 70
     1
 10
0.0
 20
0.0
 30
0.0
  3
*D12
  1

  0
LINE
  5
990
330
8B8
100
AcDbEntity
  8
Dimension (ISO)
100
AcDbLine
 10
60.03199490367456
 20
46.36293347059885
 30
0.0
 11
60.03199490367456
 21
40.55558374171126
 31
0.0
  0
LINE
  5
991
330
8B8
100
AcDbEntity
  8
Dimension (ISO)
100
AcDbLine
 10
52.53199490367456
 20
53.66293347059884
 30
0.0
 11
52.53199490367456
 21
40.55558374171126
 31
0.0
  0
LINE
  5
992
330
8B8
100
AcDbEntity
  8
Dimension (ISO)
100
AcDbLine
 10
58.78199490367456
 20
42.14308374171126
 30
0.0
 11
53.78199490367456
 21
42.14308374171126
 31
0.0
  0
SOLID
  5
993
330
8B8
100
AcDbEntity
  8
Dimension (ISO)
100
AcDbTrace
 10
58.78199490367456
 20
42.35141707504459
 30
0.0
 11
58.78199490367456
 21
41.93475040837792
 31
0.0
 12
60.03199490367456
 22
42.14308374171126
 32
0.0
 13
60.03199490367456
 23
42.14308374171126
 33
0.0
  0
SOLID
  5
994
330
8B8
100
AcDbEntity
  8
Dimension (ISO)
100
AcDbTrace
 10
53.78199490367456
 20
42.35141707504459
 30
0.0
 11
53.78199490367456
 21
41.93475040837792
 31
0.0
 12
52.53199490367456
 22
42.14308374171126
 32
0.0
 13
52.53199490367456
 23
42.14308374171126
 33
0.0
  0
MTEXT
  5
995
330
8B8
100
AcDbEntity
  8
Dimension (ISO)
100
AcDbMText
 10
54.72474171361412
 20
44.70893934950173
 30
0.0
 40
1.75
 41
0.0
 71
     1
 72
     1
  1
\A1;7,5
  7
Note Text (ISO)
 73
     1
 44
1.0
1001
ACAD
1000
MTEXTBEGIN
1070
    73
1070
     1
1070
    44
1040
1.0
1070
    74
1070
     0
1000
MTEXTEND
  0
POINT
  5
996
330
8B8
100
AcDbEntity
  8
Defpoints
 62
     0
100
AcDbPoint
 10
60.03199490367456
 20
46.36293347059885
 30
0.0
  0
POINT
  5
997
330
8B8
100
AcDbEntity
  8
Defpoints
 62
     0
100
AcDbPoint
 10
52.53199490367456
 20
53.66293347059884
 30
0.0
  0
POINT
  5
998
330
8B8
100
AcDbEntity
  8
Defpoints
 62
     0
100
AcDbPoint
 10
52.53199490367456
 20
42.14308374171126
 30
0.0
  0
ENDBLK
  5
8BA
330
8B8
100
AcDbEntity
  8
0
100
AcDbBlockEnd
  0
BLOCK
  5
99B
330
99A
100
AcDbEntity
  8
0
100
AcDbBlockBegin
  2
*D13
 70
     1
 10
0.0
 20
0.0
 30
0.0
  3
*D13
  1

  0
LINE
  5
A66
330
99A
100
AcDbEntity
  8
Dimension (ISO)
100
AcDbLine
 10
60.03199490367456
 20
46.36293347059885
 30
0.0
 11
60.03199490367456
 21
31.06314591952286
 31
0.0
  0
LINE
  5
A67
330
99A
100
AcDbEntity
  8
Dimension (ISO)
100
AcDbLine
 10
22.53199490367455
 20
53.66293347059884
 30
0.0
 11
22.53199490367455
 21
31.06314591952286
 31
0.0
  0
LINE
  5
A68
330
99A
100
AcDbEntity
  8
Dimension (ISO)
100
AcDbLine
 10
58.78199490367456
 20
32.65064591952286
 30
0.0
 11
23.78199490367455
 21
32.65064591952286
 31
0.0
  0
SOLID
  5
A69
330
99A
100
AcDbEntity
  8
Dimension (ISO)
100
AcDbTrace
 10
58.78199490367456
 20
32.85897925285619
 30
0.0
 11
58.78199490367456
 21
32.44231258618953
 31
0.0
 12
60.03199490367456
 22
32.65064591952286
 32
0.0
 13
60.03199490367456
 23
32.65064591952286
 33
0.0
  0
SOLID
  5
A6A
330
99A
100
AcDbEntity
  8
Dimension (ISO)
100
AcDbTrace
 10
23.78199490367455
 20
32.85897925285619
 30
0.0
 11
23.78199490367455
 21
32.44231258618953
 31
0.0
 12
22.53199490367455
 22
32.65064591952286
 32
0.0
 13
22.53199490367455
 23
32.65064591952286
 33
0.0
  0
MTEXT
  5
A6B
330
99A
100
AcDbEntity
  8
Dimension (ISO)
100
AcDbMText
 10
39.06658187479612
 20
35.25293537553361
 30
0.0
 40
1.75
 41
0.0
 71
     1
 72
     1
  1
\A1;37,5
  7
Note Text (ISO)
 73
     1
 44
1.0
1001
ACAD
1000
MTEXTBEGIN
1070
    73
1070
     1
1070
    44
1040
1.0
1070
    74
1070
     0
1000
MTEXTEND
  0
POINT
  5
A6C
330
99A
100
AcDbEntity
  8
Defpoints
 62
     0
100
AcDbPoint
 10
60.03199490367456
 20
46.36293347059885
 30
0.0
  0
POINT
  5
A6D
330
99A
100
AcDbEntity
  8
Defpoints
 62
     0
100
AcDbPoint
 10
22.53199490367455
 20
53.66293347059884
 30
0.0
  0
POINT
  5
A6E
330
99A
100
AcDbEntity
  8
Defpoints
 62
     0
100
AcDbPoint
 10
22.53199490367455
 20
32.65064591952286
 30
0.0
  0
ENDBLK
  5
99C
330
99A
100
AcDbEntity
  8
0
100
AcDbBlockEnd
  0
BLOCK
  5
A71
330
A70
100
AcDbEntity
  8
0
100
AcDbBlockBegin
  2
*D14
 70
     1
 10
0.0
 20
0.0
 30
0.0
  3
*D14
  1

  0
LINE
  5
B48
330
A70
100
AcDbEntity
  8
Dimension (ISO)
100
AcDbLine
 10
60.03199490367456
 20
60.96293347059885
 30
0.0
 11
60.03199490367456
 21
96.55043347059882
 31
0.0
  0
LINE
  5
B49
330
A70
100
AcDbEntity
  8
Dimension (ISO)
100
AcDbLine
 10
45.03199490367456
 20
90.96293347059884
 30
0.0
 11
45.03199490367456
 21
96.55043347059883
 31
0.0
  0
LINE
  5
B4A
330
A70
100
AcDbEntity
  8
Dimension (ISO)
100
AcDbLine
 10
58.78199490367456
 20
94.96293347059882
 30
0.0
 11
46.28199490367456
 21
94.96293347059882
 31
0.0
  0
SOLID
  5
B4B
330
A70
100
AcDbEntity
  8
Dimension (ISO)
100
AcDbTrace
 10
58.78199490367456
 20
95.17126680393216
 30
0.0
 11
58.78199490367456
 21
94.7546001372655
 31
0.0
 12
60.03199490367456
 22
94.96293347059882
 32
0.0
 13
60.03199490367456
 23
94.96293347059882
 33
0.0
  0
SOLID
  5
B4C
330
A70
100
AcDbEntity
  8
Dimension (ISO)
100
AcDbTrace
 10
46.28199490367456
 20
95.17126680393216
 30
0.0
 11
46.28199490367456
 21
94.7546001372655
 31
0.0
 12
45.03199490367456
 22
94.96293347059882
 32
0.0
 13
45.03199490367456
 23
94.96293347059882
 33
0.0
  0
MTEXT
  5
B4D
330
A70
100
AcDbEntity
  8
Dimension (ISO)
100
AcDbMText
 10
51.41371082039719
 20
97.13624374595141
 30
0.0
 40
1.75
 41
0.0
 71
     1
 72
     1
  1
\A1;15
  7
Note Text (ISO)
 73
     1
 44
1.0
1001
ACAD
1000
MTEXTBEGIN
1070
    73
1070
     1
1070
    44
1040
1.0
1070
    74
1070
     0
1000
MTEXTEND
  0
POINT
  5
B4E
330
A70
100
AcDbEntity
  8
Defpoints
 62
     0
100
AcDbPoint
 10
60.03199490367456
 20
60.96293347059885
 30
0.0
  0
POINT
  5
B4F
330
A70
100
AcDbEntity
  8
Defpoints
 62
     0
100
AcDbPoint
 10
45.03199490367456
 20
90.96293347059884
 30
0.0
  0
POINT
  5
B50
330
A70
100
AcDbEntity
  8
Defpoints
 62
     0
100
AcDbPoint
 10
45.03199490367456
 20
94.96293347059882
 30
0.0
  0
ENDBLK
  5
A72
330
A70
100
AcDbEntity
  8
0
100
AcDbBlockEnd
  0
BLOCK
  5
B53
330
B52
100
AcDbEntity
  8
0
100
AcDbBlockBegin
  2
*D15
 70
     1
 10
0.0
 20
0.0
 30
0.0
  3
*D15
  1

  0
LINE
  5
C2A
330
B52
100
AcDbEntity
  8
Dimension (ISO)
100
AcDbLine
 10
15.03199490367456
 20
60.96293347059884
 30
0.0
 11
15.03199490367456
 21
96.55043347059882
 31
0.0
  0
LINE
  5
C2B
330
B52
100
AcDbEntity
  8
Dimension (ISO)
100
AcDbLine
 10
30.03199490367455
 20
90.96293347059884
 30
0.0
 11
30.03199490367455
 21
96.55043347059883
 31
0.0
  0
LINE
  5
C2C
330
B52
100
AcDbEntity
  8
Dimension (ISO)
100
AcDbLine
 10
16.28199490367456
 20
94.96293347059882
 30
0.0
 11
28.78199490367455
 21
94.96293347059882
 31
0.0
  0
SOLID
  5
C2D
330
B52
100
AcDbEntity
  8
Dimension (ISO)
100
AcDbTrace
 10
16.28199490367456
 20
95.17126680393216
 30
0.0
 11
16.28199490367456
 21
94.7546001372655
 31
0.0
 12
15.03199490367456
 22
94.96293347059882
 32
0.0
 13
15.03199490367456
 23
94.96293347059882
 33
0.0
  0
SOLID
  5
C2E
330
B52
100
AcDbEntity
  8
Dimension (ISO)
100
AcDbTrace
 10
28.78199490367455
 20
95.17126680393216
 30
0.0
 11
28.78199490367455
 21
94.7546001372655
 31
0.0
 12
30.03199490367455
 22
94.96293347059882
 32
0.0
 13
30.03199490367455
 23
94.96293347059882
 33
0.0
  0
MTEXT
  5
C2F
330
B52
100
AcDbEntity
  8
Dimension (ISO)
100
AcDbMText
 10
21.41371082039719
 20
97.13624374595141
 30
0.0
 40
1.75
 41
0.0
 71
     1
 72
     1
  1
\A1;15
  7
Note Text (ISO)
 73
     1
 44
1.0
1001
ACAD
1000
MTEXTBEGIN
1070
    73
1070
     1
1070
    44
1040
1.0
1070
    74
1070
     0
1000
MTEXTEND
  0
POINT
  5
C30
330
B52
100
AcDbEntity
  8
Defpoints
 62
     0
100
AcDbPoint
 10
15.03199490367456
 20
60.96293347059884
 30
0.0
  0
POINT
  5
C31
330
B52
100
AcDbEntity
  8
Defpoints
 62
     0
100
AcDbPoint
 10
30.03199490367455
 20
90.96293347059884
 30
0.0
  0
POINT
  5
C32
330
B52
100
AcDbEntity
  8
Defpoints
 62
     0
100
AcDbPoint
 10
30.03199490367455
 20
94.96293347059882
 30
0.0
  0
ENDBLK
  5
B54
330
B52
100
AcDbEntity
  8
0
100
AcDbBlockEnd
  0
BLOCK
  5
C35
330
C34
100
AcDbEntity
  8
0
100
AcDbBlockBegin
  2
*D16
 70
     1
 10
0.0
 20
0.0
 30
0.0
  3
*D16
  1

  0
LINE
  5
D0C
330
C34
100
AcDbEntity
  8
Dimension (ISO)
100
AcDbLine
 10
45.03199490367456
 20
90.96293347059884
 30
0.0
 11
45.03199490367456
 21
96.55043347059883
 31
0.0
  0
LINE
  5
D0D
330
C34
100
AcDbEntity
  8
Dimension (ISO)
100
AcDbLine
 10
30.03199490367455
 20
90.96293347059884
 30
0.0
 11
30.03199490367455
 21
96.55043347059883
 31
0.0
  0
LINE
  5
D0E
330
C34
100
AcDbEntity
  8
Dimension (ISO)
100
AcDbLine
 10
43.78199490367456
 20
94.96293347059882
 30
0.0
 11
31.28199490367455
 21
94.96293347059882
 31
0.0
  0
SOLID
  5
D0F
330
C34
100
AcDbEntity
  8
Dimension (ISO)
100
AcDbTrace
 10
43.78199490367456
 20
95.17126680393216
 30
0.0
 11
43.78199490367456
 21
94.7546001372655
 31
0.0
 12
45.03199490367456
 22
94.96293347059882
 32
0.0
 13
45.03199490367456
 23
94.96293347059882
 33
0.0
  0
SOLID
  5
D10
330
C34
100
AcDbEntity
  8
Dimension (ISO)
100
AcDbTrace
 10
31.28199490367455
 20
95.17126680393216
 30
0.0
 11
31.28199490367455
 21
94.7546001372655
 31
0.0
 12
30.03199490367455
 22
94.96293347059882
 32
0.0
 13
30.03199490367455
 23
94.96293347059882
 33
0.0
  0
MTEXT
  5
D11
330
C34
100
AcDbEntity
  8
Dimension (ISO)
100
AcDbMText
 10
36.41371082039719
 20
97.13624374595141
 30
0.0
 40
1.75
 41
0.0
 71
     1
 72
     1
  1
\A1;15
  7
Note Text (ISO)
 73
     1
 44
1.0
1001
ACAD
1000
MTEXTBEGIN
1070
    73
1070
     1
1070
    44
1040
1.0
1070
    74
1070
     0
1000
MTEXTEND
  0
POINT
  5
D12
330
C34
100
AcDbEntity
  8
Defpoints
 62
     0
100
AcDbPoint
 10
45.03199490367456
 20
90.96293347059884
 30
0.0
  0
POINT
  5
D13
330
C34
100
AcDbEntity
  8
Defpoints
 62
     0
100
AcDbPoint
 10
30.03199490367455
 20
90.96293347059884
 30
0.0
  0
POINT
  5
D14
330
C34
100
AcDbEntity
  8
Defpoints
 62
     0
100
AcDbPoint
 10
30.03199490367455
 20
94.96293347059882
 30
0.0
  0
ENDBLK
  5
C36
330
C34
100
AcDbEntity
  8
0
100
AcDbBlockEnd
  0
BLOCK
  5
D17
330
D16
100
AcDbEntity
  8
0
100
AcDbBlockBegin
  2
*D17
 70
     1
 10
0.0
 20
0.0
 30
0.0
  3
*D17
  1

  0
LINE
  5
DE2
330
D16
100
AcDbEntity
  8
Dimension (ISO)
100
AcDbLine
 10
60.03199490367456
 20
46.36293347059885
 30
0.0
 11
60.03199490367456
 21
35.07543347059885
 31
0.0
  0
LINE
  5
DE3
330
D16
100
AcDbEntity
  8
Dimension (ISO)
100
AcDbLine
 10
37.53199490367456
 20
53.66293347059884
 30
0.0
 11
37.53199490367456
 21
35.07543347059885
 31
0.0
  0
LINE
  5
DE4
330
D16
100
AcDbEntity
  8
Dimension (ISO)
100
AcDbLine
 10
58.78199490367456
 20
36.66293347059885
 30
0.0
 11
38.78199490367456
 21
36.66293347059885
 31
0.0
  0
SOLID
  5
DE5
330
D16
100
AcDbEntity
  8
Dimension (ISO)
100
AcDbTrace
 10
58.78199490367456
 20
36.87126680393219
 30
0.0
 11
58.78199490367456
 21
36.45460013726552
 31
0.0
 12
60.03199490367456
 22
36.66293347059885
 32
0.0
 13
60.03199490367456
 23
36.66293347059885
 33
0.0
  0
SOLID
  5
DE6
330
D16
100
AcDbEntity
  8
Dimension (ISO)
100
AcDbTrace
 10
38.78199490367456
 20
36.87126680393219
 30
0.0
 11
38.78199490367456
 21
36.45460013726552
 31
0.0
 12
37.53199490367456
 22
36.66293347059885
 32
0.0
 13
37.53199490367456
 23
36.66293347059885
 33
0.0
  0
MTEXT
  5
DE7
330
D16
100
AcDbEntity
  8
Dimension (ISO)
100
AcDbMText
 10
46.57363358735487
 20
39.2652229266096
 30
0.0
 40
1.75
 41
0.0
 71
     1
 72
     1
  1
\A1;22,5
  7
Note Text (ISO)
 73
     1
 44
1.0
1001
ACAD
1000
MTEXTBEGIN
1070
    73
1070
     1
1070
    44
1040
1.0
1070
    74
1070
     0
1000
MTEXTEND
  0
POINT
  5
DE8
330
D16
100
AcDbEntity
  8
Defpoints
 62
     0
100
AcDbPoint
 10
60.03199490367456
 20
46.36293347059885
 30
0.0
  0
POINT
  5
DE9
330
D16
100
AcDbEntity
  8
Defpoints
 62
     0
100
AcDbPoint
 10
37.53199490367456
 20
53.66293347059884
 30
0.0
  0
POINT
  5
DEA
330
D16
100
AcDbEntity
  8
Defpoints
 62
     0
100
AcDbPoint
 10
37.53199490367456
 20
36.66293347059885
 30
0.0
  0
ENDBLK
  5
D18
330
D16
100
AcDbEntity
  8
0
100
AcDbBlockEnd
  0
BLOCK
  5
DED
330
DEC
100
AcDbEntity
  8
0
100
AcDbBlockBegin
  2
*D18
 70
     1
 10
0.0
 20
0.0
 30
0.0
  3
*D18
  1

  0
LINE
  5
EB8
330
DEC
100
AcDbEntity
  8
Dimension (ISO)
100
AcDbLine
 10
15.03199490367456
 20
46.36293347059884
 30
0.0
 11
15.03199490367455
 21
27.002576986305
 31
0.0
  0
LINE
  5
EB9
330
DEC
100
AcDbEntity
  8
Dimension (ISO)
100
AcDbLine
 10
60.03199490367456
 20
46.36293347059885
 30
0.0
 11
60.03199490367456
 21
27.002576986305
 31
0.0
  0
LINE
  5
EBA
330
DEC
100
AcDbEntity
  8
Dimension (ISO)
100
AcDbLine
 10
16.28199490367456
 20
28.590076986305
 30
0.0
 11
58.78199490367456
 21
28.590076986305
 31
0.0
  0
SOLID
  5
EBB
330
DEC
100
AcDbEntity
  8
Dimension (ISO)
100
AcDbTrace
 10
16.28199490367456
 20
28.79841031963833
 30
0.0
 11
16.28199490367456
 21
28.38174365297167
 31
0.0
 12
15.03199490367455
 22
28.590076986305
 32
0.0
 13
15.03199490367455
 23
28.590076986305
 33
0.0
  0
SOLID
  5
EBC
330
DEC
100
AcDbEntity
  8
Dimension (ISO)
100
AcDbTrace
 10
58.78199490367456
 20
28.79841031963833
 30
0.0
 11
58.78199490367456
 21
28.38174365297167
 31
0.0
 12
60.03199490367456
 22
28.590076986305
 32
0.0
 13
60.03199490367456
 23
28.590076986305
 33
0.0
  0
MTEXT
  5
EBD
330
DEC
100
AcDbEntity
  8
Dimension (ISO)
100
AcDbMText
 10
36.30440927573635
 20
30.75751083452529
 30
0.0
 40
1.75
 41
0.0
 71
     1
 72
     1
  1
\A1;45
  7
Note Text (ISO)
 73
     1
 44
1.0
1001
ACAD
1000
MTEXTBEGIN
1070
    73
1070
     1
1070
    44
1040
1.0
1070
    74
1070
     0
1000
MTEXTEND
  0
POINT
  5
EBE
330
DEC
100
AcDbEntity
  8
Defpoints
 62
     0
100
AcDbPoint
 10
15.03199490367456
 20
46.36293347059884
 30
0.0
  0
POINT
  5
EBF
330
DEC
100
AcDbEntity
  8
Defpoints
 62
     0
100
AcDbPoint
 10
60.03199490367456
 20
46.36293347059885
 30
0.0
  0
POINT
  5
EC0
330
DEC
100
AcDbEntity
  8
Defpoints
 62
     0
100
AcDbPoint
 10
60.03199490367456
 20
28.590076986305
 30
0.0
  0
ENDBLK
  5
DEE
330
DEC
100
AcDbEntity
  8
0
100
AcDbBlockEnd
  0
BLOCK
  5
ECD
330
ECC
100
AcDbEntity
  8
0
100
AcDbBlockBegin
  2
*D19
 70
     1
 10
0.0
 20
0.0
 30
0.0
  3
*D19
  1

  0
LINE
  5
FBF
330
ECC
100
AcDbEntity
  8
Dimension (ISO)
100
AcDbLine
 10
39.03199490367455
 20
83.66293347059883
 30
0.0
 11
39.03199490367455
 21
77.07543347059882
 31
0.0
  0
LINE
  5
FC0
330
ECC
100
AcDbEntity
  8
Dimension (ISO)
100
AcDbLine
 10
36.03199490367456
 20
83.66293347059883
 30
0.0
 11
36.03199490367456
 21
77.07543347059882
 31
0.0
  0
LINE
  5
FC1
330
ECC
100
AcDbEntity
  8
Dimension (ISO)
100
AcDbLine
 10
40.28199490367454
 20
78.66293347059883
 30
0.0
 11
41.53199490367454
 21
78.66293347059883
 31
0.0
  0
LINE
  5
FC2
330
ECC
100
AcDbEntity
  8
Dimension (ISO)
100
AcDbLine
 10
34.78199490367456
 20
78.66293347059883
 30
0.0
 11
20.2040775485917
 21
78.66293347059883
 31
0.0
  0
LINE
  5
FC3
330
ECC
100
AcDbEntity
  8
Dimension (ISO)
100
AcDbLine
 10
39.03199490367455
 20
78.66293347059883
 30
0.0
 11
36.03199490367456
 21
78.66293347059883
 31
0.0
  0
SOLID
  5
FC4
330
ECC
100
AcDbEntity
  8
Dimension (ISO)
100
AcDbTrace
 10
40.28199490367454
 20
78.87126680393215
 30
0.0
 11
40.28199490367454
 21
78.4546001372655
 31
0.0
 12
39.03199490367455
 22
78.66293347059883
 32
0.0
 13
39.03199490367455
 23
78.66293347059883
 33
0.0
  0
SOLID
  5
FC5
330
ECC
100
AcDbEntity
  8
Dimension (ISO)
100
AcDbTrace
 10
34.78199490367456
 20
78.87126680393215
 30
0.0
 11
34.78199490367456
 21
78.4546001372655
 31
0.0
 12
36.03199490367456
 22
78.66293347059883
 32
0.0
 13
36.03199490367456
 23
78.66293347059883
 33
0.0
  0
MTEXT
  5
FC6
330
ECC
100
AcDbEntity
  8
Dimension (ISO)
100
AcDbMText
 10
20.58507754859169
 20
81.71047695329145
 30
0.0
 40
1.75
 41
0.0
 71
     1
 72
     1
  1
\A1;{\fAIGDT|b0|i0;\H1.7500;\ln\fTahoma|b0|i0;\H1.7500;}3{\fTahoma|b0|i0;\H1.7500; (5x)}
  7
Note Text (ISO)
 73
     1
 44
1.0
1001
ACAD
1000
MTEXTBEGIN
1070
    73
1070
     1
1070
    44
1040
1.0
1070
    74
1070
     0
1000
MTEXTEND
  0
POINT
  5
FC7
330
ECC
100
AcDbEntity
  8
Defpoints
 62
     0
100
AcDbPoint
 10
39.03199490367455
 20
83.66293347059883
 30
0.0
  0
POINT
  5
FC8
330
ECC
100
AcDbEntity
  8
Defpoints
 62
     0
100
AcDbPoint
 10
36.03199490367456
 20
83.66293347059883
 30
0.0
  0
POINT
  5
FC9
330
ECC
100
AcDbEntity
  8
Defpoints
 62
     0
100
AcDbPoint
 10
36.03199490367456
 20
78.66293347059883
 30
0.0
  0
ENDBLK
  5
ECE
330
ECC
100
AcDbEntity
  8
0
100
AcDbBlockEnd
  0
ENDSEC
  0
SECTION
  2
ENTITIES
  0
INSERT
  5
150
330
77
100
AcDbEntity
  8
0
100
AcDbBlockReference
 66
     1
  2
Title Blocks Makerrbeam title
 10
-25.95400749702009
 20
-12.68503532477016
 30
0.0
 41
0.5
 42
0.5
 43
0.5
  0
ATTRIB
  5
153
102
{ACAD_XDICTIONARY
360
FDB
102
}
330
150
100
AcDbEntity
  8
Title (ISO)
 62
     7
100
AcDbText
 10
20.05661664722231
 20
10.05135683100312
 30
0.0
 40
1.749999970197677
  1
18-4-2017
  7
Text Style289
100
AcDbAttribute
  2
CREATION_DATE_001
 70
     0
  0
SEQEND
  5
152
330
150
100
AcDbEntity
  8
0
  0
INSERT
  5
15B
330
77
100
AcDbEntity
  8
0
100
AcDbBlockReference
  2
Borders Makerbeam A4
 10
0.0
 20
0.0
 30
0.0
 41
0.5
 42
0.5
 43
0.5
  0
LINE
  5
15C
330
77
100
AcDbEntity
  8
Visible (ISO)
100
AcDbLine
 10
41.86925320387761
 20
90.06293347059884
 30
0.0
 11
33.1947366034715
 21
90.06293347059884
 31
0.0
  0
LINE
  5
15D
330
77
100
AcDbEntity
  8
Visible (ISO)
100
AcDbLine
 10
56.95209591635222
 20
47.06293347059883
 30
0.0
 11
18.11189389099689
 21
47.06293347059883
 31
0.0
  0
LINE
  5
15E
330
77
100
AcDbEntity
  8
Visible (ISO)
100
AcDbLine
 10
56.88345738322553
 20
48.06293347059884
 30
0.0
 11
18.18053242412359
 21
48.06293347059884
 31
0.0
  0
LINE
  5
15F
330
77
100
AcDbEntity
  8
Visible (ISO)
100
AcDbLine
 10
18.19473660347151
 20
47.26293347059884
 30
0.0
 11
56.86925320387761
 21
47.26293347059885
 31
0.0
  0
LINE
  5
160
330
77
100
AcDbEntity
  8
Visible (ISO)
100
AcDbLine
 10
18.1805324241236
 20
48.06293347059884
 30
0.0
 11
17.68566549510753
 21
47.77200457896281
 31
0.0
  0
LINE
  5
161
330
77
100
AcDbEntity
  8
Visible (ISO)
100
AcDbLine
 10
17.68566549510753
 20
47.77200457896281
 30
0.0
 11
18.19473660347151
 21
47.26293347059884
 31
0.0
  0
LINE
  5
162
330
77
100
AcDbEntity
  8
Visible (ISO)
100
AcDbLine
 10
41.93789173700433
 20
89.06293347059884
 30
0.0
 11
33.12609807034478
 21
89.06293347059884
 31
0.0
  0
LINE
  5
163
330
77
100
AcDbEntity
  8
Visible (ISO)
100
AcDbLine
 10
33.12609807034478
 20
89.06293347059884
 30
0.0
 11
32.5395589506368
 21
89.40775581776415
 31
0.0
  0
LINE
  5
164
330
77
100
AcDbEntity
  8
Visible (ISO)
100
AcDbLine
 10
32.5395589506368
 20
89.40775581776415
 30
0.0
 11
31.78717255650924
 21
88.65536942363659
 31
0.0
  0
LINE
  5
165
330
77
100
AcDbEntity
  8
Visible (ISO)
100
AcDbLine
 10
31.78717255650924
 20
88.65536942363659
 30
0.0
 11
32.13199490367454
 21
88.06883030392866
 31
0.0
  0
LINE
  5
166
330
77
100
AcDbEntity
  8
Visible (ISO)
100
AcDbLine
 10
32.13199490367454
 20
88.06883030392866
 30
0.0
 11
32.13199490367458
 21
61.24283245792118
 31
0.0
  0
LINE
  5
167
330
77
100
AcDbEntity
  8
Visible (ISO)
100
AcDbLine
 10
32.13199490367458
 20
61.24283245792118
 30
0.0
 11
31.52764198632779
 21
60.63847954057441
 31
0.0
  0
LINE
  5
168
330
77
100
AcDbEntity
  8
Visible (ISO)
100
AcDbLine
 10
31.52764198632779
 20
60.63847954057441
 30
0.0
 11
32.91310274239189
 21
58.28182563188152
 31
0.0
  0
LINE
  5
169
330
77
100
AcDbEntity
  8
Visible (ISO)
100
AcDbLine
 10
32.91310274239189
 20
58.28182563188152
 30
0.0
 11
30.55644883369901
 21
59.66728638794562
 31
0.0
  0
LINE
  5
16A
330
77
100
AcDbEntity
  8
Visible (ISO)
100
AcDbLine
 10
30.55644883369901
 20
59.66728638794562
 30
0.0
 11
29.95209591635223
 21
59.06293347059885
 31
0.0
  0
LINE
  5
16B
330
77
100
AcDbEntity
  8
Visible (ISO)
100
AcDbLine
 10
29.95209591635223
 20
59.06293347059885
 30
0.0
 11
18.12609807034479
 21
59.06293347059885
 31
0.0
  0
LINE
  5
16C
330
77
100
AcDbEntity
  8
Visible (ISO)
100
AcDbLine
 10
18.12609807034479
 20
59.06293347059885
 30
0.0
 11
17.53955895063682
 21
59.40775581776415
 31
0.0
  0
LINE
  5
16D
330
77
100
AcDbEntity
  8
Visible (ISO)
100
AcDbLine
 10
17.53955895063682
 20
59.40775581776415
 30
0.0
 11
16.78717255650926
 21
58.65536942363658
 31
0.0
  0
LINE
  5
16E
330
77
100
AcDbEntity
  8
Visible (ISO)
100
AcDbLine
 10
16.78717255650926
 20
58.65536942363658
 30
0.0
 11
17.13199490367456
 21
58.06883030392864
 31
0.0
  0
LINE
  5
16F
330
77
100
AcDbEntity
  8
Visible (ISO)
100
AcDbLine
 10
17.13199490367456
 20
58.06883030392864
 30
0.0
 11
17.13199490367456
 21
49.25703663726907
 31
0.0
  0
LINE
  5
170
330
77
100
AcDbEntity
  8
Visible (ISO)
100
AcDbLine
 10
17.13199490367456
 20
49.25703663726907
 30
0.0
 11
16.78717255650925
 21
48.67049751756109
 31
0.0
  0
LINE
  5
171
330
77
100
AcDbEntity
  8
Visible (ISO)
100
AcDbLine
 10
16.78717255650925
 20
48.67049751756109
 30
0.0
 11
17.53955895063681
 21
47.91811112343353
 31
0.0
  0
LINE
  5
172
330
77
100
AcDbEntity
  8
Visible (ISO)
100
AcDbLine
 10
17.53955895063681
 20
47.91811112343353
 30
0.0
 11
18.12609807034477
 21
48.26293347059884
 31
0.0
  0
LINE
  5
173
330
77
100
AcDbEntity
  8
Visible (ISO)
100
AcDbLine
 10
18.12609807034477
 20
48.26293347059884
 30
0.0
 11
56.93789173700435
 21
48.26293347059884
 31
0.0
  0
LINE
  5
174
330
77
100
AcDbEntity
  8
Visible (ISO)
100
AcDbLine
 10
33.1947366034715
 20
90.06293347059884
 30
0.0
 11
32.68566549510753
 21
89.55386236223487
 31
0.0
  0
LINE
  5
175
330
77
100
AcDbEntity
  8
Visible (ISO)
100
AcDbLine
 10
32.68566549510753
 20
89.55386236223487
 30
0.0
 11
33.18053242412361
 21
89.26293347059885
 31
0.0
  0
LINE
  5
176
330
77
100
AcDbEntity
  8
Visible (ISO)
100
AcDbLine
 10
33.18053242412361
 20
89.26293347059885
 30
0.0
 11
41.8834573832255
 21
89.26293347059885
 31
0.0
  0
LINE
  5
177
330
77
100
AcDbEntity
  8
Visible (ISO)
100
AcDbLine
 10
33.11189389099688
 20
90.26293347059883
 30
0.0
 11
41.95209591635222
 21
90.26293347059883
 31
0.0
  0
LINE
  5
178
330
77
100
AcDbEntity
  8
Visible (ISO)
100
AcDbLine
 10
18.11189389099689
 20
47.06293347059883
 30
0.0
 11
17.50754097365011
 21
47.6672863879456
 31
0.0
  0
LINE
  5
179
330
77
100
AcDbEntity
  8
Visible (ISO)
100
AcDbLine
 10
17.50754097365011
 20
47.6672863879456
 30
0.0
 11
15.15088706495722
 21
46.28182563188151
 31
0.0
  0
LINE
  5
17A
330
77
100
AcDbEntity
  8
Visible (ISO)
100
AcDbLine
 10
15.15088706495722
 20
46.28182563188151
 30
0.0
 11
16.53634782102132
 21
48.6384795405744
 31
0.0
  0
LINE
  5
17B
330
77
100
AcDbEntity
  8
Visible (ISO)
100
AcDbLine
 10
16.53634782102132
 20
48.6384795405744
 30
0.0
 11
15.93199490367456
 21
49.24283245792118
 31
0.0
  0
LINE
  5
17C
330
77
100
AcDbEntity
  8
Visible (ISO)
100
AcDbLine
 10
15.93199490367456
 20
49.24283245792118
 30
0.0
 11
15.93199490367456
 21
58.0830344832765
 31
0.0
  0
LINE
  5
17D
330
77
100
AcDbEntity
  8
Visible (ISO)
100
AcDbLine
 10
15.93199490367456
 20
58.0830344832765
 30
0.0
 11
16.53634782102134
 21
58.68738740062328
 31
0.0
  0
LINE
  5
17E
330
77
100
AcDbEntity
  8
Visible (ISO)
100
AcDbLine
 10
16.53634782102134
 20
58.68738740062328
 30
0.0
 11
15.15088706495724
 21
61.04404130931617
 31
0.0
  0
LINE
  5
17F
330
77
100
AcDbEntity
  8
Visible (ISO)
100
AcDbLine
 10
15.15088706495724
 20
61.04404130931617
 30
0.0
 11
17.50754097365013
 21
59.65858055325207
 31
0.0
  0
LINE
  5
180
330
77
100
AcDbEntity
  8
Visible (ISO)
100
AcDbLine
 10
17.50754097365013
 20
59.65858055325207
 30
0.0
 11
18.11189389099689
 21
60.26293347059883
 31
0.0
  0
LINE
  5
181
330
77
100
AcDbEntity
  8
Visible (ISO)
100
AcDbLine
 10
18.11189389099689
 20
60.26293347059883
 30
0.0
 11
29.93789173700433
 21
60.26293347059884
 31
0.0
  0
LINE
  5
182
330
77
100
AcDbEntity
  8
Visible (ISO)
100
AcDbLine
 10
29.93789173700433
 20
60.26293347059884
 30
0.0
 11
30.5244308567123
 21
59.91811112343355
 31
0.0
  0
LINE
  5
183
330
77
100
AcDbEntity
  8
Visible (ISO)
100
AcDbLine
 10
30.5244308567123
 20
59.91811112343355
 30
0.0
 11
31.27681725083987
 21
60.6704975175611
 31
0.0
  0
LINE
  5
184
330
77
100
AcDbEntity
  8
Visible (ISO)
100
AcDbLine
 10
31.27681725083987
 20
60.6704975175611
 30
0.0
 11
30.93199490367457
 21
61.25703663726906
 31
0.0
  0
LINE
  5
185
330
77
100
AcDbEntity
  8
Visible (ISO)
100
AcDbLine
 10
30.93199490367457
 20
61.25703663726906
 30
0.0
 11
30.93199490367454
 21
88.0830344832765
 31
0.0
  0
LINE
  5
186
330
77
100
AcDbEntity
  8
Visible (ISO)
100
AcDbLine
 10
30.93199490367454
 20
88.0830344832765
 30
0.0
 11
31.53634782102132
 21
88.68738740062328
 31
0.0
  0
LINE
  5
187
330
77
100
AcDbEntity
  8
Visible (ISO)
100
AcDbLine
 10
31.53634782102132
 20
88.68738740062328
 30
0.0
 11
30.15088706495722
 21
91.04404130931616
 31
0.0
  0
LINE
  5
188
330
77
100
AcDbEntity
  8
Visible (ISO)
100
AcDbLine
 10
30.15088706495722
 20
91.04404130931616
 30
0.0
 11
32.50754097365012
 21
89.65858055325208
 31
0.0
  0
LINE
  5
189
330
77
100
AcDbEntity
  8
Visible (ISO)
100
AcDbLine
 10
32.50754097365012
 20
89.65858055325208
 30
0.0
 11
33.11189389099688
 21
90.26293347059883
 31
0.0
  0
LINE
  5
18A
330
77
100
AcDbEntity
  8
Visible (ISO)
100
AcDbLine
 10
16.64106601203853
 20
48.81660406203182
 30
0.0
 11
16.93199490367455
 21
49.31147099104791
 31
0.0
  0
LINE
  5
18B
330
77
100
AcDbEntity
  8
Visible (ISO)
100
AcDbLine
 10
15.71385174525888
 20
46.84479031218318
 30
0.0
 11
17.36143442917939
 21
47.81339293241633
 31
0.0
  0
LINE
  5
18C
330
77
100
AcDbEntity
  8
Visible (ISO)
100
AcDbLine
 10
16.68245436549204
 20
48.49237299610368
 30
0.0
 11
15.71385174525888
 21
46.84479031218318
 31
0.0
  0
LINE
  5
18D
330
77
100
AcDbEntity
  8
Visible (ISO)
100
AcDbLine
 10
17.36143442917939
 20
47.81339293241633
 30
0.0
 11
16.68245436549204
 21
48.49237299610368
 31
0.0
  0
LINE
  5
18E
330
77
100
AcDbEntity
  8
Visible (ISO)
100
AcDbLine
 10
16.13199490367455
 20
49.32567517039579
 30
0.0
 11
16.64106601203853
 21
48.81660406203182
 31
0.0
  0
LINE
  5
18F
330
77
100
AcDbEntity
  8
Visible (ISO)
100
AcDbLine
 10
31.13199490367457
 20
61.31147099104788
 30
0.0
 11
31.42292379531059
 21
60.81660406203183
 31
0.0
  0
LINE
  5
190
330
77
100
AcDbEntity
  8
Visible (ISO)
100
AcDbLine
 10
30.37832431224158
 20
59.77200457896282
 30
0.0
 11
29.8834573832255
 21
60.06293347059885
 31
0.0
  0
LINE
  5
191
330
77
100
AcDbEntity
  8
Visible (ISO)
100
AcDbLine
 10
31.13199490367455
 20
88.00019177080189
 30
0.0
 11
31.13199490367457
 21
61.31147099104788
 31
0.0
  0
LINE
  5
192
330
77
100
AcDbEntity
  8
Visible (ISO)
100
AcDbLine
 10
32.35013806209023
 20
58.84479031218319
 30
0.0
 11
31.38153544185708
 21
60.49237299610369
 31
0.0
  0
LINE
  5
193
330
77
100
AcDbEntity
  8
Visible (ISO)
100
AcDbLine
 10
30.70255537816972
 20
59.81339293241633
 30
0.0
 11
32.35013806209023
 21
58.84479031218319
 31
0.0
  0
LINE
  5
194
330
77
100
AcDbEntity
  8
Visible (ISO)
100
AcDbLine
 10
31.38153544185708
 20
60.49237299610369
 30
0.0
 11
30.70255537816972
 21
59.81339293241633
 31
0.0
  0
LINE
  5
195
330
77
100
AcDbEntity
  8
Visible (ISO)
100
AcDbLine
 10
29.86925320387761
 20
59.26293347059884
 30
0.0
 11
30.37832431224158
 21
59.77200457896282
 31
0.0
  0
LINE
  5
196
330
77
100
AcDbEntity
  8
Visible (ISO)
100
AcDbLine
 10
31.93199490367454
 20
88.01439595014981
 30
0.0
 11
31.64106601203852
 21
88.50926287916585
 31
0.0
  0
LINE
  5
197
330
77
100
AcDbEntity
  8
Visible (ISO)
100
AcDbLine
 10
31.93199490367457
 20
61.32567517039579
 30
0.0
 11
31.93199490367454
 21
88.01439595014981
 31
0.0
  0
LINE
  5
198
330
77
100
AcDbEntity
  8
Visible (ISO)
100
AcDbLine
 10
30.71385174525889
 20
90.4810766290145
 30
0.0
 11
31.68245436549204
 21
88.83349394509401
 31
0.0
  0
LINE
  5
199
330
77
100
AcDbEntity
  8
Visible (ISO)
100
AcDbLine
 10
32.36143442917939
 20
89.51247400878136
 30
0.0
 11
30.71385174525889
 21
90.4810766290145
 31
0.0
  0
LINE
  5
19A
330
77
100
AcDbEntity
  8
Visible (ISO)
100
AcDbLine
 10
31.68245436549204
 20
88.83349394509401
 30
0.0
 11
32.36143442917939
 21
89.51247400878136
 31
0.0
  0
LINE
  5
19B
330
77
100
AcDbEntity
  8
Visible (ISO)
100
AcDbLine
 10
31.64106601203852
 20
88.50926287916585
 30
0.0
 11
31.13199490367455
 21
88.00019177080189
 31
0.0
  0
LINE
  5
19C
330
77
100
AcDbEntity
  8
Visible (ISO)
100
AcDbLine
 10
16.93199490367456
 20
58.0143959501498
 30
0.0
 11
16.64106601203854
 21
58.50926287916586
 31
0.0
  0
LINE
  5
19D
330
77
100
AcDbEntity
  8
Visible (ISO)
100
AcDbLine
 10
17.68566549510754
 20
59.55386236223486
 30
0.0
 11
18.18053242412362
 21
59.26293347059884
 31
0.0
  0
LINE
  5
19E
330
77
100
AcDbEntity
  8
Visible (ISO)
100
AcDbLine
 10
16.93199490367455
 20
49.31147099104791
 30
0.0
 11
16.93199490367456
 21
58.0143959501498
 31
0.0
  0
LINE
  5
19F
330
77
100
AcDbEntity
  8
Visible (ISO)
100
AcDbLine
 10
15.71385174525891
 20
60.4810766290145
 30
0.0
 11
16.68245436549206
 21
58.83349394509401
 31
0.0
  0
LINE
  5
1A0
330
77
100
AcDbEntity
  8
Visible (ISO)
100
AcDbLine
 10
17.36143442917941
 20
59.51247400878135
 30
0.0
 11
15.71385174525891
 21
60.4810766290145
 31
0.0
  0
LINE
  5
1A1
330
77
100
AcDbEntity
  8
Visible (ISO)
100
AcDbLine
 10
16.68245436549206
 20
58.83349394509401
 30
0.0
 11
17.36143442917941
 21
59.51247400878135
 31
0.0
  0
LINE
  5
1A2
330
77
100
AcDbEntity
  8
Visible (ISO)
100
AcDbLine
 10
18.19473660347152
 20
60.06293347059884
 30
0.0
 11
17.68566549510754
 21
59.55386236223486
 31
0.0
  0
LINE
  5
1A3
330
77
100
AcDbEntity
  8
Visible (ISO)
100
AcDbLine
 10
16.64106601203854
 20
58.50926287916586
 30
0.0
 11
16.13199490367456
 21
58.00019177080189
 31
0.0
  0
LINE
  5
1A4
330
77
100
AcDbEntity
  8
Visible (ISO)
100
AcDbLine
 10
29.8834573832255
 20
60.06293347059885
 30
0.0
 11
18.19473660347152
 21
60.06293347059884
 31
0.0
  0
LINE
  5
1A5
330
77
100
AcDbEntity
  8
Visible (ISO)
100
AcDbLine
 10
16.13199490367456
 20
58.00019177080189
 30
0.0
 11
16.13199490367455
 21
49.32567517039579
 31
0.0
  0
LINE
  5
1A6
330
77
100
AcDbEntity
  8
Visible (ISO)
100
AcDbLine
 10
31.42292379531059
 20
60.81660406203183
 30
0.0
 11
31.93199490367457
 21
61.32567517039579
 31
0.0
  0
LINE
  5
1A7
330
77
100
AcDbEntity
  8
Visible (ISO)
100
AcDbLine
 10
18.18053242412362
 20
59.26293347059884
 30
0.0
 11
29.86925320387761
 21
59.26293347059884
 31
0.0
  0
LINE
  5
1A8
330
77
100
AcDbEntity
  8
Visible (ISO)
100
AcDbLine
 10
57.37832431224159
 20
47.77200457896282
 30
0.0
 11
56.88345738322553
 21
48.06293347059884
 31
0.0
  0
LINE
  5
1A9
330
77
100
AcDbEntity
  8
Visible (ISO)
100
AcDbLine
 10
59.91310274239189
 20
46.28182563188151
 30
0.0
 11
57.556448833699
 21
47.66728638794561
 31
0.0
  0
LINE
  5
1AA
330
77
100
AcDbEntity
  8
Visible (ISO)
100
AcDbLine
 10
56.93789173700435
 20
48.26293347059884
 30
0.0
 11
57.52443085671231
 21
47.91811112343354
 31
0.0
  0
LINE
  5
1AB
330
77
100
AcDbEntity
  8
Visible (ISO)
100
AcDbLine
 10
58.13199490367455
 20
49.31147099104791
 30
0.0
 11
58.42292379531059
 21
48.81660406203182
 31
0.0
  0
LINE
  5
1AC
330
77
100
AcDbEntity
  8
Visible (ISO)
100
AcDbLine
 10
58.5276419863278
 20
48.6384795405744
 30
0.0
 11
59.91310274239189
 21
46.28182563188151
 31
0.0
  0
LINE
  5
1AD
330
77
100
AcDbEntity
  8
Visible (ISO)
100
AcDbLine
 10
58.27681725083987
 20
48.6704975175611
 30
0.0
 11
57.93199490367456
 21
49.25703663726907
 31
0.0
  0
LINE
  5
1AE
330
77
100
AcDbEntity
  8
Visible (ISO)
100
AcDbLine
 10
57.70255537816971
 20
47.81339293241633
 30
0.0
 11
59.35013806209022
 21
46.84479031218319
 31
0.0
  0
LINE
  5
1AF
330
77
100
AcDbEntity
  8
Visible (ISO)
100
AcDbLine
 10
59.35013806209022
 20
46.84479031218319
 30
0.0
 11
58.38153544185708
 21
48.49237299610368
 31
0.0
  0
LINE
  5
1B0
330
77
100
AcDbEntity
  8
Visible (ISO)
100
AcDbLine
 10
57.93199490367456
 20
49.25703663726907
 30
0.0
 11
57.93199490367456
 21
58.06883030392864
 31
0.0
  0
LINE
  5
1B1
330
77
100
AcDbEntity
  8
Visible (ISO)
100
AcDbLine
 10
58.38153544185708
 20
48.49237299610368
 30
0.0
 11
57.70255537816971
 21
47.81339293241633
 31
0.0
  0
LINE
  5
1B2
330
77
100
AcDbEntity
  8
Visible (ISO)
100
AcDbLine
 10
59.13199490367455
 20
49.24283245792118
 30
0.0
 11
58.5276419863278
 21
48.6384795405744
 31
0.0
  0
LINE
  5
1B3
330
77
100
AcDbEntity
  8
Visible (ISO)
100
AcDbLine
 10
58.42292379531059
 20
48.81660406203182
 30
0.0
 11
58.93199490367456
 21
49.32567517039579
 31
0.0
  0
LINE
  5
1B4
330
77
100
AcDbEntity
  8
Visible (ISO)
100
AcDbLine
 10
57.52443085671231
 20
47.91811112343354
 30
0.0
 11
58.27681725083987
 21
48.6704975175611
 31
0.0
  0
LINE
  5
1B5
330
77
100
AcDbEntity
  8
Visible (ISO)
100
AcDbLine
 10
43.64106601203852
 20
60.81660406203183
 30
0.0
 11
43.93199490367454
 21
61.31147099104788
 31
0.0
  0
LINE
  5
1B6
330
77
100
AcDbEntity
  8
Visible (ISO)
100
AcDbLine
 10
42.15088706495722
 20
58.28182563188152
 30
0.0
 11
43.53634782102132
 21
60.63847954057441
 31
0.0
  0
LINE
  5
1B7
330
77
100
AcDbEntity
  8
Visible (ISO)
100
AcDbLine
 10
44.13199490367454
 20
61.25703663726906
 30
0.0
 11
43.78717255650925
 21
60.6704975175611
 31
0.0
  0
LINE
  5
1B8
330
77
100
AcDbEntity
  8
Visible (ISO)
100
AcDbLine
 10
45.1805324241236
 20
60.06293347059885
 30
0.0
 11
44.68566549510753
 21
59.77200457896282
 31
0.0
  0
LINE
  5
1B9
330
77
100
AcDbEntity
  8
Visible (ISO)
100
AcDbLine
 10
44.50754097365011
 20
59.66728638794562
 30
0.0
 11
42.15088706495722
 21
58.28182563188152
 31
0.0
  0
LINE
  5
1BA
330
77
100
AcDbEntity
  8
Visible (ISO)
100
AcDbLine
 10
44.5395589506368
 20
59.91811112343355
 30
0.0
 11
45.12609807034478
 21
60.26293347059884
 31
0.0
  0
LINE
  5
1BB
330
77
100
AcDbEntity
  8
Visible (ISO)
100
AcDbLine
 10
43.93199490367454
 20
61.31147099104788
 30
0.0
 11
43.93199490367456
 21
88.00019177080189
 31
0.0
  0
LINE
  5
1BC
330
77
100
AcDbEntity
  8
Visible (ISO)
100
AcDbLine
 10
43.68245436549203
 20
60.49237299610369
 30
0.0
 11
42.71385174525889
 21
58.84479031218319
 31
0.0
  0
LINE
  5
1BD
330
77
100
AcDbEntity
  8
Visible (ISO)
100
AcDbLine
 10
42.71385174525889
 20
58.84479031218319
 30
0.0
 11
44.36143442917939
 21
59.81339293241633
 31
0.0
  0
LINE
  5
1BE
330
77
100
AcDbEntity
  8
Visible (ISO)
100
AcDbLine
 10
45.12609807034478
 20
60.26293347059884
 30
0.0
 11
56.95209591635222
 21
60.26293347059884
 31
0.0
  0
LINE
  5
1BF
330
77
100
AcDbEntity
  8
Visible (ISO)
100
AcDbLine
 10
44.36143442917939
 20
59.81339293241633
 30
0.0
 11
43.68245436549203
 21
60.49237299610369
 31
0.0
  0
LINE
  5
1C0
330
77
100
AcDbEntity
  8
Visible (ISO)
100
AcDbLine
 10
45.11189389099688
 20
59.06293347059885
 30
0.0
 11
44.50754097365011
 21
59.66728638794562
 31
0.0
  0
LINE
  5
1C1
330
77
100
AcDbEntity
  8
Visible (ISO)
100
AcDbLine
 10
44.68566549510753
 20
59.77200457896282
 30
0.0
 11
45.19473660347151
 21
59.26293347059884
 31
0.0
  0
LINE
  5
1C2
330
77
100
AcDbEntity
  8
Visible (ISO)
100
AcDbLine
 10
43.78717255650925
 20
60.6704975175611
 30
0.0
 11
44.5395589506368
 21
59.91811112343355
 31
0.0
  0
LINE
  5
1C3
330
77
100
AcDbEntity
  8
Visible (ISO)
100
AcDbLine
 10
43.42292379531058
 20
88.50926287916585
 30
0.0
 11
43.13199490367456
 21
88.01439595014981
 31
0.0
  0
LINE
  5
1C4
330
77
100
AcDbEntity
  8
Visible (ISO)
100
AcDbLine
 10
44.91310274239189
 20
91.04404130931616
 30
0.0
 11
43.52764198632779
 21
88.68738740062328
 31
0.0
  0
LINE
  5
1C5
330
77
100
AcDbEntity
  8
Visible (ISO)
100
AcDbLine
 10
42.93199490367456
 20
88.06883030392866
 30
0.0
 11
43.27681725083985
 21
88.65536942363659
 31
0.0
  0
LINE
  5
1C6
330
77
100
AcDbEntity
  8
Visible (ISO)
100
AcDbLine
 10
41.8834573832255
 20
89.26293347059885
 30
0.0
 11
42.37832431224157
 21
89.55386236223487
 31
0.0
  0
LINE
  5
1C7
330
77
100
AcDbEntity
  8
Visible (ISO)
100
AcDbLine
 10
42.55644883369899
 20
89.65858055325208
 30
0.0
 11
44.91310274239189
 21
91.04404130931616
 31
0.0
  0
LINE
  5
1C8
330
77
100
AcDbEntity
  8
Visible (ISO)
100
AcDbLine
 10
42.5244308567123
 20
89.40775581776415
 30
0.0
 11
41.93789173700433
 21
89.06293347059884
 31
0.0
  0
LINE
  5
1C9
330
77
100
AcDbEntity
  8
Visible (ISO)
100
AcDbLine
 10
43.13199490367456
 20
88.01439595014981
 30
0.0
 11
43.13199490367455
 21
61.32567517039579
 31
0.0
  0
LINE
  5
1CA
330
77
100
AcDbEntity
  8
Visible (ISO)
100
AcDbLine
 10
43.38153544185707
 20
88.83349394509401
 30
0.0
 11
44.35013806209021
 21
90.4810766290145
 31
0.0
  0
LINE
  5
1CB
330
77
100
AcDbEntity
  8
Visible (ISO)
100
AcDbLine
 10
44.35013806209021
 20
90.4810766290145
 30
0.0
 11
42.70255537816971
 21
89.51247400878136
 31
0.0
  0
LINE
  5
1CC
330
77
100
AcDbEntity
  8
Visible (ISO)
100
AcDbLine
 10
42.70255537816971
 20
89.51247400878136
 30
0.0
 11
43.38153544185707
 21
88.83349394509401
 31
0.0
  0
LINE
  5
1CD
330
77
100
AcDbEntity
  8
Visible (ISO)
100
AcDbLine
 10
41.95209591635222
 20
90.26293347059883
 30
0.0
 11
42.55644883369899
 21
89.65858055325208
 31
0.0
  0
LINE
  5
1CE
330
77
100
AcDbEntity
  8
Visible (ISO)
100
AcDbLine
 10
42.37832431224157
 20
89.55386236223487
 30
0.0
 11
41.86925320387761
 21
90.06293347059884
 31
0.0
  0
LINE
  5
1CF
330
77
100
AcDbEntity
  8
Visible (ISO)
100
AcDbLine
 10
43.27681725083985
 20
88.65536942363659
 30
0.0
 11
42.5244308567123
 21
89.40775581776415
 31
0.0
  0
LINE
  5
1D0
330
77
100
AcDbEntity
  8
Visible (ISO)
100
AcDbLine
 10
43.52764198632779
 20
88.68738740062328
 30
0.0
 11
44.13199490367456
 21
88.0830344832765
 31
0.0
  0
LINE
  5
1D1
330
77
100
AcDbEntity
  8
Visible (ISO)
100
AcDbLine
 10
44.13199490367456
 20
88.0830344832765
 30
0.0
 11
44.13199490367454
 21
61.25703663726906
 31
0.0
  0
LINE
  5
1D2
330
77
100
AcDbEntity
  8
Visible (ISO)
100
AcDbLine
 10
43.93199490367456
 20
88.00019177080189
 30
0.0
 11
43.42292379531058
 21
88.50926287916585
 31
0.0
  0
LINE
  5
1D3
330
77
100
AcDbEntity
  8
Visible (ISO)
100
AcDbLine
 10
58.42292379531058
 20
58.50926287916587
 30
0.0
 11
58.13199490367455
 21
58.0143959501498
 31
0.0
  0
LINE
  5
1D4
330
77
100
AcDbEntity
  8
Visible (ISO)
100
AcDbLine
 10
59.91310274239189
 20
61.04404130931617
 30
0.0
 11
58.52764198632778
 21
58.68738740062328
 31
0.0
  0
LINE
  5
1D5
330
77
100
AcDbEntity
  8
Visible (ISO)
100
AcDbLine
 10
57.93199490367456
 20
58.06883030392864
 30
0.0
 11
58.27681725083985
 21
58.6553694236366
 31
0.0
  0
LINE
  5
1D6
330
77
100
AcDbEntity
  8
Visible (ISO)
100
AcDbLine
 10
56.88345738322549
 20
59.26293347059884
 30
0.0
 11
57.37832431224157
 21
59.55386236223488
 31
0.0
  0
LINE
  5
1D7
330
77
100
AcDbEntity
  8
Visible (ISO)
100
AcDbLine
 10
57.55644883369898
 20
59.65858055325208
 30
0.0
 11
59.91310274239189
 21
61.04404130931617
 31
0.0
  0
LINE
  5
1D8
330
77
100
AcDbEntity
  8
Visible (ISO)
100
AcDbLine
 10
57.52443085671228
 20
59.40775581776415
 30
0.0
 11
56.93789173700431
 21
59.06293347059885
 31
0.0
  0
LINE
  5
1D9
330
77
100
AcDbEntity
  8
Visible (ISO)
100
AcDbLine
 10
58.13199490367455
 20
58.0143959501498
 30
0.0
 11
58.13199490367455
 21
49.31147099104791
 31
0.0
  0
LINE
  5
1DA
330
77
100
AcDbEntity
  8
Visible (ISO)
100
AcDbLine
 10
58.38153544185707
 20
58.83349394509401
 30
0.0
 11
59.3501380620902
 21
60.4810766290145
 31
0.0
  0
LINE
  5
1DB
330
77
100
AcDbEntity
  8
Visible (ISO)
100
AcDbLine
 10
59.3501380620902
 20
60.4810766290145
 30
0.0
 11
57.70255537816971
 21
59.51247400878137
 31
0.0
  0
LINE
  5
1DC
330
77
100
AcDbEntity
  8
Visible (ISO)
100
AcDbLine
 10
56.93789173700431
 20
59.06293347059885
 30
0.0
 11
45.11189389099688
 21
59.06293347059885
 31
0.0
  0
LINE
  5
1DD
330
77
100
AcDbEntity
  8
Visible (ISO)
100
AcDbLine
 10
57.70255537816971
 20
59.51247400878137
 30
0.0
 11
58.38153544185707
 21
58.83349394509401
 31
0.0
  0
LINE
  5
1DE
330
77
100
AcDbEntity
  8
Visible (ISO)
100
AcDbLine
 10
56.95209591635222
 20
60.26293347059884
 30
0.0
 11
57.55644883369898
 21
59.65858055325208
 31
0.0
  0
LINE
  5
1DF
330
77
100
AcDbEntity
  8
Visible (ISO)
100
AcDbLine
 10
57.37832431224157
 20
59.55386236223488
 30
0.0
 11
56.86925320387759
 21
60.06293347059885
 31
0.0
  0
LINE
  5
1E0
330
77
100
AcDbEntity
  8
Visible (ISO)
100
AcDbLine
 10
58.27681725083985
 20
58.6553694236366
 30
0.0
 11
57.52443085671228
 21
59.40775581776415
 31
0.0
  0
LINE
  5
1E1
330
77
100
AcDbEntity
  8
Visible (ISO)
100
AcDbLine
 10
58.52764198632778
 20
58.68738740062328
 30
0.0
 11
59.13199490367455
 21
58.0830344832765
 31
0.0
  0
LINE
  5
1E2
330
77
100
AcDbEntity
  8
Visible (ISO)
100
AcDbLine
 10
59.13199490367455
 20
58.0830344832765
 30
0.0
 11
59.13199490367455
 21
49.24283245792118
 31
0.0
  0
LINE
  5
1E3
330
77
100
AcDbEntity
  8
Visible (ISO)
100
AcDbLine
 10
58.93199490367455
 20
58.00019177080189
 30
0.0
 11
58.42292379531058
 21
58.50926287916587
 31
0.0
  0
LINE
  5
1E4
330
77
100
AcDbEntity
  8
Visible (ISO)
100
AcDbLine
 10
56.86925320387759
 20
60.06293347059885
 30
0.0
 11
45.1805324241236
 21
60.06293347059885
 31
0.0
  0
LINE
  5
1E5
330
77
100
AcDbEntity
  8
Visible (ISO)
100
AcDbLine
 10
57.556448833699
 20
47.66728638794561
 30
0.0
 11
56.95209591635222
 21
47.06293347059883
 31
0.0
  0
LINE
  5
1E6
330
77
100
AcDbEntity
  8
Visible (ISO)
100
AcDbLine
 10
56.86925320387761
 20
47.26293347059885
 30
0.0
 11
57.37832431224159
 21
47.77200457896282
 31
0.0
  0
LINE
  5
1E7
330
77
100
AcDbEntity
  8
Visible (ISO)
100
AcDbLine
 10
58.93199490367456
 20
49.32567517039579
 30
0.0
 11
58.93199490367455
 21
58.00019177080189
 31
0.0
  0
LINE
  5
1E8
330
77
100
AcDbEntity
  8
Visible (ISO)
100
AcDbLine
 10
43.53634782102132
 20
60.63847954057441
 30
0.0
 11
42.93199490367455
 21
61.24283245792118
 31
0.0
  0
LINE
  5
1E9
330
77
100
AcDbEntity
  8
Visible (ISO)
100
AcDbLine
 10
42.93199490367455
 20
61.24283245792118
 30
0.0
 11
42.93199490367456
 21
88.06883030392866
 31
0.0
  0
LINE
  5
1EA
330
77
100
AcDbEntity
  8
Visible (ISO)
100
AcDbLine
 10
43.13199490367455
 20
61.32567517039579
 30
0.0
 11
43.64106601203852
 21
60.81660406203183
 31
0.0
  0
LINE
  5
1EB
330
77
100
AcDbEntity
  8
Visible (ISO)
100
AcDbLine
 10
45.19473660347151
 20
59.26293347059884
 30
0.0
 11
56.88345738322549
 21
59.26293347059884
 31
0.0
  0
CIRCLE
  5
1EC
330
77
100
AcDbEntity
  8
Visible (ISO)
100
AcDbCircle
 10
52.53199490367456
 20
53.66293347059884
 30
0.0
 40
1.5
  0
ARC
  5
1ED
330
77
100
AcDbEntity
  8
Visible (ISO)
100
AcDbCircle
 10
59.83199490367455
 20
46.36293347059885
 30
0.0
 40
0.1999999999999983
100
AcDbArc
 50
270.0
 51
0.0
  0
LINE
  5
1EE
330
77
100
AcDbEntity
  8
Visible (ISO)
100
AcDbLine
 10
60.03199490367456
 20
46.36293347059885
 30
0.0
 11
60.03199490367456
 21
60.96293347059885
 31
0.0
  0
ARC
  5
1EF
330
77
100
AcDbEntity
  8
Visible (ISO)
100
AcDbCircle
 10
59.83199490367455
 20
60.96293347059885
 30
0.0
 40
0.1999999999999957
100
AcDbArc
 50
0.0
 51
90.00000000000252
  0
LINE
  5
1F0
330
77
100
AcDbEntity
  8
Visible (ISO)
100
AcDbLine
 10
59.83199490367455
 20
61.16293347059884
 30
0.0
 11
46.03199490367456
 21
61.16293347059884
 31
0.0
  0
ARC
  5
1F1
330
77
100
AcDbEntity
  8
Visible (ISO)
100
AcDbCircle
 10
46.03199490367455
 20
62.16293347059885
 30
0.0
 40
0.9999999999999985
100
AcDbArc
 50
180.0
 51
270.0
  0
LINE
  5
1F2
330
77
100
AcDbEntity
  8
Visible (ISO)
100
AcDbLine
 10
45.03199490367456
 20
62.16293347059885
 30
0.0
 11
45.03199490367456
 21
90.96293347059884
 31
0.0
  0
ARC
  5
1F3
330
77
100
AcDbEntity
  8
Visible (ISO)
100
AcDbCircle
 10
44.83199490367455
 20
90.96293347059884
 30
0.0
 40
0.1999999999999991
100
AcDbArc
 50
0.0
 51
90.0
  0
CIRCLE
  5
1F4
330
77
100
AcDbEntity
  8
Visible (ISO)
100
AcDbCircle
 10
37.53199490367456
 20
68.66293347059884
 30
0.0
 40
1.5
  0
CIRCLE
  5
1F5
330
77
100
AcDbEntity
  8
Visible (ISO)
100
AcDbCircle
 10
37.53199490367456
 20
83.66293347059883
 30
0.0
 40
1.5
  0
CIRCLE
  5
1F6
330
77
100
AcDbEntity
  8
Visible (ISO)
100
AcDbCircle
 10
22.53199490367456
 20
53.66293347059884
 30
0.0
 40
1.5
  0
CIRCLE
  5
1F7
330
77
100
AcDbEntity
  8
Visible (ISO)
100
AcDbCircle
 10
37.53199490367456
 20
53.66293347059884
 30
0.0
 40
1.5
  0
LINE
  5
1F8
330
77
100
AcDbEntity
  8
Visible (ISO)
100
AcDbLine
 10
44.83199490367455
 20
91.16293347059883
 30
0.0
 11
30.23199490367455
 21
91.16293347059883
 31
0.0
  0
LINE
  5
1F9
330
77
100
AcDbEntity
  8
Visible (ISO)
100
AcDbLine
 10
30.03199490367455
 20
62.16293347059885
 30
0.0
 11
30.03199490367455
 21
90.96293347059884
 31
0.0
  0
LINE
  5
1FA
330
77
100
AcDbEntity
  8
Visible (ISO)
100
AcDbLine
 10
15.23199490367456
 20
61.16293347059884
 30
0.0
 11
29.03199490367456
 21
61.16293347059884
 31
0.0
  0
LINE
  5
1FB
330
77
100
AcDbEntity
  8
Visible (ISO)
100
AcDbLine
 10
15.03199490367456
 20
46.36293347059884
 30
0.0
 11
15.03199490367456
 21
60.96293347059884
 31
0.0
  0
LINE
  5
1FC
330
77
100
AcDbEntity
  8
Visible (ISO)
100
AcDbLine
 10
59.83199490367455
 20
46.16293347059884
 30
0.0
 11
15.23199490367456
 21
46.16293347059884
 31
0.0
  0
ARC
  5
1FD
330
77
100
AcDbEntity
  8
Visible (ISO)
100
AcDbCircle
 10
30.23199490367455
 20
90.96293347059884
 30
0.0
 40
0.1999999999999991
100
AcDbArc
 50
90.0
 51
180.0
  0
ARC
  5
1FE
330
77
100
AcDbEntity
  8
Visible (ISO)
100
AcDbCircle
 10
29.03199490367456
 20
62.16293347059885
 30
0.0
 40
0.9999999999999985
100
AcDbArc
 50
269.9999999999998
 51
0.0
  0
ARC
  5
1FF
330
77
100
AcDbEntity
  8
Visible (ISO)
100
AcDbCircle
 10
15.23199490367455
 20
60.96293347059884
 30
0.0
 40
0.1999999999999957
100
AcDbArc
 50
89.99999999999809
 51
180.0
  0
ARC
  5
200
330
77
100
AcDbEntity
  8
Visible (ISO)
100
AcDbCircle
 10
15.23199490367455
 20
46.36293347059884
 30
0.0
 40
0.1999999999999983
100
AcDbArc
 50
180.0
 51
270.0000000000013
  0
LINE
  5
201
330
77
100
AcDbEntity
  8
Visible (ISO)
100
AcDbLine
 10
84.33715788952637
 20
46.16293347059884
 30
0.0
 11
84.3371578895263
 21
46.36293347059884
 31
0.0
  0
LINE
  5
202
330
77
100
AcDbEntity
  8
Visible (ISO)
100
AcDbLine
 10
84.3371578895263
 20
60.96293347059884
 30
0.0
 11
84.33715788952637
 21
61.16293347059884
 31
0.0
  0
LINE
  5
203
330
77
100
AcDbEntity
  8
Visible (ISO)
100
AcDbLine
 10
84.33715788953078
 20
62.16293347059885
 30
0.0
 11
84.33715788953046
 21
61.16293347059886
 31
0.0
  0
LINE
  5
204
330
77
100
AcDbEntity
  8
Visible (ISO)
100
AcDbLine
 10
84.33715788953078
 20
90.96293347059884
 30
0.0
 11
84.33715788953081
 21
91.16293347059883
 31
0.0
  0
LINE
  5
205
330
77
100
AcDbEntity
  8
Visible (ISO)
100
AcDbLine
 10
85.83715788953083
 20
91.16293347059883
 30
0.0
 11
85.83715788953076
 21
90.96293347059884
 31
0.0
  0
LINE
  5
206
330
77
100
AcDbEntity
  8
Visible (ISO)
100
AcDbLine
 10
85.83715788953044
 20
61.16293347059886
 30
0.0
 11
85.83715788953075
 21
62.16293347059885
 31
0.0
  0
LINE
  5
207
330
77
100
AcDbEntity
  8
Visible (ISO)
100
AcDbLine
 10
85.83715788952636
 20
61.16293347059884
 30
0.0
 11
85.8371578895263
 21
60.96293347059885
 31
0.0
  0
LINE
  5
208
330
77
100
AcDbEntity
  8
Visible (ISO)
100
AcDbLine
 10
85.8371578895263
 20
46.36293347059885
 30
0.0
 11
85.83715788952636
 21
46.16293347059884
 31
0.0
  0
LINE
  5
209
330
77
100
AcDbEntity
  8
Visible (ISO)
100
AcDbLine
 10
85.83715788952636
 20
61.16293347059884
 30
0.0
 11
84.33715788952637
 21
61.16293347059884
 31
0.0
  0
LINE
  5
20A
330
77
100
AcDbEntity
  8
Visible (ISO)
100
AcDbLine
 10
84.33715788952637
 20
46.16293347059884
 30
0.0
 11
85.83715788952636
 21
46.16293347059884
 31
0.0
  0
LINE
  5
20B
330
77
100
AcDbEntity
  8
Visible (ISO)
100
AcDbLine
 10
85.83715788953083
 20
91.16293347059883
 30
0.0
 11
84.33715788953081
 21
91.16293347059883
 31
0.0
  0
LINE
  5
20C
330
77
100
AcDbEntity
  8
Visible (ISO)
100
AcDbLine
 10
84.3371578895263
 20
60.96293347059884
 30
0.0
 11
84.3371578895263
 21
46.36293347059885
 31
0.0
  0
LINE
  5
20D
330
77
100
AcDbEntity
  8
Visible (ISO)
100
AcDbLine
 10
84.33715788953074
 20
90.96293347059884
 30
0.0
 11
84.33715788953074
 21
62.16293347059885
 31
0.0
  0
LINE
  5
20E
330
77
100
AcDbEntity
  8
Visible (ISO)
100
AcDbLine
 10
85.83715788953075
 20
62.16293347059885
 30
0.0
 11
85.83715788953075
 21
90.96293347059884
 31
0.0
  0
LINE
  5
20F
330
77
100
AcDbEntity
  8
Visible (ISO)
100
AcDbLine
 10
85.8371578895263
 20
46.36293347059885
 30
0.0
 11
85.8371578895263
 21
60.96293347059884
 31
0.0
  0
ELLIPSE
  5
210
330
77
100
AcDbEntity
  8
Visible (ISO)
100
AcDbEllipse
 10
68.81999683120088
 20
114.3725570749442
 30
0.0
 11
0.7485483173766868
 21
-1.29987515421772
 31
0.0
210
0.0
220
0.0
230
1.0
 40
0.5780931159158105
 41
3.925064558227912
 42
5.499713402541012
  0
ELLIPSE
  5
211
330
77
100
AcDbEntity
  8
Visible (ISO)
100
AcDbEllipse
 10
79.42659854900068
 20
120.5278282406982
 30
0.0
 11
0.7485483173766882
 21
-1.299875154217722
 31
0.0
210
0.0
220
0.0
230
0.9999999999999998
 40
0.5780931159158105
 41
3.925064558227916
 42
5.499713402541004
  0
ELLIPSE
  5
212
330
77
100
AcDbEntity
  8
Visible (ISO)
100
AcDbEllipse
 10
79.42659854900067
 20
108.2646213680601
 30
0.0
 11
-0.7485483173765287
 21
1.299875154217805
 31
0.0
210
0.0
220
0.0
230
1.0
 40
0.5780931159158106
 41
0.7834719046385797
 42
2.358120748951691
  0
ELLIPSE
  5
213
330
77
100
AcDbEntity
  8
Visible (ISO)
100
AcDbEllipse
 10
79.42659854900068
 20
132.7910351133363
 30
0.0
 11
-0.7485483173765328
 21
1.299875154217812
 31
0.0
210
0.0
220
0.0
230
1.0
 40
0.5780931159158107
 41
0.7834719046385939
 42
2.358120748951698
  0
LINE
  5
214
330
77
100
AcDbEntity
  8
Visible (ISO)
100
AcDbLine
 10
84.58847805166323
 20
135.9501098389717
 30
0.0
 11
74.26471904633811
 21
141.8951672603389
 31
0.0
  0
LINE
  5
215
330
77
100
AcDbEntity
  8
Visible (ISO)
100
AcDbLine
 10
73.06263751832111
 20
118.0609862285094
 30
0.0
 11
63.65811732853831
 21
123.4766892219468
 31
0.0
  0
ELLIPSE
  5
216
330
77
100
AcDbEntity
  8
Visible (ISO)
100
AcDbEllipse
 10
78.36593837722102
 20
119.9170346700096
 30
0.0
 11
-0.7485483173766074
 21
1.299875154217763
 31
0.0
210
0.0
220
0.0
230
1.0
 40
0.5780931159158105
 41
0.0
 42
6.283185307179586
  0
ELLIPSE
  5
217
330
77
100
AcDbEntity
  8
Visible (ISO)
100
AcDbEllipse
 10
78.365938377221
 20
132.1802415426477
 30
0.0
 11
-0.7485483173765293
 21
1.299875154217807
 31
0.0
210
0.0
220
0.0
230
0.9999999999999998
 40
0.5780931159158105
 41
0.0
 42
6.283185307179586
  0
ELLIPSE
  5
218
330
77
100
AcDbEntity
  8
Visible (ISO)
100
AcDbEllipse
 10
67.75933665942122
 20
113.7617635042556
 30
0.0
 11
-0.7485483173765293
 21
1.299875154217807
 31
0.0
210
0.0
220
0.0
230
0.9999999999999998
 40
0.5780931159158105
 41
0.0
 42
6.283185307179586
  0
ELLIPSE
  5
219
330
77
100
AcDbEntity
  8
Visible (ISO)
100
AcDbEllipse
 10
78.36593837722102
 20
107.6538277973715
 30
0.0
 11
-0.7485483173765293
 21
1.299875154217807
 31
0.0
210
0.0
220
0.0
230
0.9999999999999998
 40
0.5780931159158105
 41
0.0
 42
6.283185307179586
  0
LINE
  5
21A
330
77
100
AcDbEntity
  8
Visible (ISO)
100
AcDbLine
 10
83.52781787988357
 20
135.3393162682831
 30
0.0
 11
73.20405887455845
 21
141.2843736896503
 31
0.0
  0
LINE
  5
21B
330
77
100
AcDbEntity
  8
Visible (ISO)
100
AcDbLine
 10
73.06263751832111
 20
117.6569462119751
 30
0.0
 11
73.06263751832111
 21
141.2023034074403
 31
0.0
  0
LINE
  5
21C
330
77
100
AcDbEntity
  8
Visible (ISO)
100
AcDbLine
 10
62.59745715675865
 20
122.8658956512582
 30
0.0
 11
72.35553073713446
 21
117.2465948009249
 31
0.0
  0
LINE
  5
21D
330
77
100
AcDbEntity
  8
Visible (ISO)
100
AcDbLine
 10
62.45603580052133
 20
110.8476373463471
 30
0.0
 11
62.45603580052133
 21
122.7838253690482
 31
0.0
  0
LINE
  5
21E
330
77
100
AcDbEntity
  8
Visible (ISO)
100
AcDbLine
 10
94.13441959768336
 20
92.44175994348475
 30
0.0
 11
62.59745715675865
 21
110.6026887786201
 31
0.0
  0
ELLIPSE
  5
21F
330
77
100
AcDbEntity
  8
Visible (ISO)
100
AcDbEllipse
 10
90.03320026680047
 20
102.156685661176
 30
0.0
 11
-0.7485483173765318
 21
1.299875154217811
 31
0.0
210
0.0
220
0.0
230
1.0
 40
0.5780931159158105
 41
0.7834719046385992
 42
2.358120748951691
  0
LINE
  5
220
330
77
100
AcDbEntity
  8
Visible (ISO)
100
AcDbLine
 10
81.43284313305267
 20
135.6464301521873
 30
0.0
 11
81.43991420086454
 21
135.6505021093252
 31
0.0
  0
LINE
  5
221
330
77
100
AcDbEntity
  8
Visible (ISO)
100
AcDbLine
 10
92.04948872239056
 20
95.19573132096812
 30
0.0
 11
92.05655979020242
 21
95.19980327810605
 31
0.0
  0
ELLIPSE
  5
222
330
77
100
AcDbEntity
  8
Visible (ISO)
100
AcDbEllipse
 10
84.58847805166323
 20
135.7866004140032
 30
0.0
 11
0.0998064423168685
 21
-0.1733166872290373
 31
0.0
210
0.0
220
0.0
230
1.0
 40
0.5780931159158104
 41
0.7873318718205198
 42
2.358128198615528
  0
LINE
  5
223
330
77
100
AcDbEntity
  8
Visible (ISO)
100
AcDbLine
 10
84.72989940790055
 20
135.7051612712448
 30
0.0
 11
84.72989940790055
 21
112.1598040757796
 31
0.0
  0
ELLIPSE
  5
224
330
77
100
AcDbEntity
  8
Visible (ISO)
100
AcDbEllipse
 10
85.43700618908721
 20
111.7526083619873
 30
0.0
 11
0.4990322115844554
 21
-0.8665834361451429
 31
0.0
210
0.0
220
0.0
230
1.0
 40
0.5780931159158105
 41
3.928924525409886
 42
5.499720852204774
  0
LINE
  5
225
330
77
100
AcDbEntity
  8
Visible (ISO)
100
AcDbLine
 10
85.43700618908721
 20
110.9350612371448
 30
0.0
 11
95.19507976946302
 21
105.3157603868114
 31
0.0
  0
ELLIPSE
  5
226
330
77
100
AcDbEntity
  8
Visible (ISO)
100
AcDbEllipse
 10
95.19507976946302
 20
105.1522509618429
 30
0.0
 11
0.0998064423168696
 21
-0.1733166872290391
 31
0.0
210
0.0
220
0.0
230
1.0
 40
0.5780931159158107
 41
0.787331871820582
 42
2.358128198615528
  0
LINE
  5
227
330
77
100
AcDbEntity
  8
Visible (ISO)
100
AcDbLine
 10
95.33650112570034
 20
105.0708118190845
 30
0.0
 11
95.33650112570034
 21
93.13462379638341
 31
0.0
  0
ELLIPSE
  5
228
330
77
100
AcDbEntity
  8
Visible (ISO)
100
AcDbEllipse
 10
95.19507976946304
 20
93.21606293914184
 30
0.0
 11
0.0998064423168633
 21
-0.1733166872290043
 31
0.0
210
0.0
220
0.0
230
1.0
 40
0.5780931159158107
 41
0.0
 42
0.7873318718203946
  0
LINE
  5
229
330
77
100
AcDbEntity
  8
Visible (ISO)
100
AcDbLine
 10
92.40648355149472
 20
94.7604475068225
 30
0.0
 11
92.39941248368284
 21
94.75637554968457
 31
0.0
  0
LINE
  5
22A
330
77
100
AcDbEntity
  8
Visible (ISO)
100
AcDbLine
 10
92.40648355149472
 20
94.7604475068225
 30
0.0
 11
92.05655979020242
 21
95.19980327810605
 31
0.0
  0
LINE
  5
22B
330
77
100
AcDbEntity
  8
Visible (ISO)
100
AcDbLine
 10
92.39941248368284
 20
94.75637554968457
 30
0.0
 11
92.04948872239056
 21
95.19573132096812
 31
0.0
  0
LINE
  5
22C
330
77
100
AcDbEntity
  8
Visible (ISO)
100
AcDbLine
 10
92.52536554070102
 20
94.598231952041
 30
0.0
 11
92.53243660851286
 21
94.60230390917892
 31
0.0
  0
LINE
  5
22D
330
77
100
AcDbEntity
  8
Visible (ISO)
100
AcDbLine
 10
94.19177150044777
 20
92.50593312382706
 30
0.0
 11
92.52536554070102
 21
94.598231952041
 31
0.0
  0
LINE
  5
22E
330
77
100
AcDbEntity
  8
Visible (ISO)
100
AcDbLine
 10
94.18170875187479
 20
92.53151788445393
 30
0.0
 11
92.53243660851286
 21
94.60230390917892
 31
0.0
  0
LINE
  5
22F
330
77
100
AcDbEntity
  8
Visible (ISO)
100
AcDbLine
 10
92.50272541205383
 20
94.81633057637182
 30
0.0
 11
92.5097964798657
 21
94.82040253350975
 31
0.0
  0
LINE
  5
230
330
77
100
AcDbEntity
  8
Visible (ISO)
100
AcDbLine
 10
92.08797962307711
 20
95.33707531039484
 30
0.0
 11
92.50272541205383
 21
94.81633057637182
 31
0.0
  0
LINE
  5
231
330
77
100
AcDbEntity
  8
Visible (ISO)
100
AcDbLine
 10
93.13805586178501
 20
95.18502842154433
 30
0.0
 11
93.14512692959686
 21
95.18910037868225
 31
0.0
  0
LINE
  5
232
330
77
100
AcDbEntity
  8
Visible (ISO)
100
AcDbLine
 10
92.93233806966604
 20
95.70807045423363
 30
0.0
 11
93.13805586178501
 21
95.18502842154433
 31
0.0
  0
LINE
  5
233
330
77
100
AcDbEntity
  8
Visible (ISO)
100
AcDbLine
 10
93.21210280476689
 20
94.99676243262458
 30
0.0
 11
94.19177150044777
 21
92.50593312382706
 31
0.0
  0
LINE
  5
234
330
77
100
AcDbEntity
  8
Visible (ISO)
100
AcDbLine
 10
93.04181400122587
 20
95.12914535199501
 30
0.0
 11
93.034742933414
 21
95.12507339485708
 31
0.0
  0
LINE
  5
235
330
77
100
AcDbEntity
  8
Visible (ISO)
100
AcDbLine
 10
93.04181400122587
 20
95.12914535199501
 30
0.0
 11
92.79798778124058
 21
95.74907890470544
 31
0.0
  0
LINE
  5
236
330
77
100
AcDbEntity
  8
Visible (ISO)
100
AcDbLine
 10
92.79091671342872
 20
95.74500694756752
 30
0.0
 11
92.79798778124058
 21
95.74907890470544
 31
0.0
  0
LINE
  5
237
330
77
100
AcDbEntity
  8
Visible (ISO)
100
AcDbLine
 10
93.034742933414
 20
95.12507339485708
 30
0.0
 11
92.79091671342872
 21
95.74500694756752
 31
0.0
  0
LINE
  5
238
330
77
100
AcDbEntity
  8
Visible (ISO)
100
AcDbLine
 10
93.79369535743789
 20
93.19542008443086
 30
0.0
 11
93.80076642524976
 21
93.19949204156879
 31
0.0
  0
LINE
  5
239
330
77
100
AcDbEntity
  8
Visible (ISO)
100
AcDbLine
 10
92.628678469072
 20
94.65818697872823
 30
0.0
 11
93.79369535743789
 21
93.19542008443086
 31
0.0
  0
LINE
  5
23A
330
77
100
AcDbEntity
  8
Visible (ISO)
100
AcDbLine
 10
93.10878987639586
 20
94.93680740593735
 30
0.0
 11
93.11586094420773
 21
94.94087936307526
 31
0.0
  0
LINE
  5
23B
330
77
100
AcDbEntity
  8
Visible (ISO)
100
AcDbLine
 10
93.79369535743789
 20
93.19542008443086
 30
0.0
 11
93.10878987639586
 21
94.93680740593735
 31
0.0
  0
LINE
  5
23C
330
77
100
AcDbEntity
  8
Visible (ISO)
100
AcDbLine
 10
93.80076642524976
 20
93.19949204156879
 30
0.0
 11
93.11586094420773
 21
94.94087936307526
 31
0.0
  0
LINE
  5
23D
330
77
100
AcDbEntity
  8
Visible (ISO)
100
AcDbLine
 10
92.79798778124058
 20
95.74907890470544
 30
0.0
 11
92.79798778124058
 21
102.9531354815887
 31
0.0
  0
LINE
  5
23E
330
77
100
AcDbEntity
  8
Visible (ISO)
100
AcDbLine
 10
92.79091671342872
 20
102.9490635244507
 30
0.0
 11
92.79798778124058
 21
102.9531354815887
 31
0.0
  0
LINE
  5
23F
330
77
100
AcDbEntity
  8
Visible (ISO)
100
AcDbLine
 10
92.79091671342872
 20
95.74500694756752
 30
0.0
 11
92.79091671342872
 21
102.9490635244507
 31
0.0
  0
LINE
  5
240
330
77
100
AcDbEntity
  8
Visible (ISO)
100
AcDbLine
 10
93.10878987639586
 20
94.93680740593735
 30
0.0
 11
92.628678469072
 21
94.65818697872823
 31
0.0
  0
LINE
  5
241
330
77
100
AcDbEntity
  8
Visible (ISO)
100
AcDbLine
 10
93.63944485085269
 20
95.24475950503017
 30
0.0
 11
93.21210280476689
 21
94.99676243262458
 31
0.0
  0
LINE
  5
242
330
77
100
AcDbEntity
  8
Visible (ISO)
100
AcDbLine
 10
93.14512692959686
 20
95.18910037868225
 30
0.0
 11
93.50509456242724
 21
95.39799842632433
 31
0.0
  0
LINE
  5
243
330
77
100
AcDbEntity
  8
Visible (ISO)
100
AcDbLine
 10
93.49802349461539
 20
95.3939264691864
 30
0.0
 11
93.50509456242724
 21
95.39799842632433
 31
0.0
  0
LINE
  5
244
330
77
100
AcDbEntity
  8
Visible (ISO)
100
AcDbLine
 10
93.13805586178501
 20
95.18502842154433
 30
0.0
 11
93.49802349461539
 21
95.3939264691864
 31
0.0
  0
LINE
  5
245
330
77
100
AcDbEntity
  8
Visible (ISO)
100
AcDbLine
 10
92.5097964798657
 20
94.82040253350975
 30
0.0
 11
93.04181400122587
 21
95.12914535199501
 31
0.0
  0
LINE
  5
246
330
77
100
AcDbEntity
  8
Visible (ISO)
100
AcDbLine
 10
92.50272541205383
 20
94.81633057637182
 30
0.0
 11
93.034742933414
 21
95.12507339485708
 31
0.0
  0
LINE
  5
247
330
77
100
AcDbEntity
  8
Visible (ISO)
100
AcDbLine
 10
82.69277505250849
 20
111.0187750080281
 30
0.0
 11
82.68570398469663
 21
111.0147030508901
 31
0.0
  0
LINE
  5
248
330
77
100
AcDbEntity
  8
Visible (ISO)
100
AcDbLine
 10
82.69277505250849
 20
111.0187750080281
 30
0.0
 11
82.89849284462745
 21
111.3048870453323
 31
0.0
  0
LINE
  5
249
330
77
100
AcDbEntity
  8
Visible (ISO)
100
AcDbLine
 10
82.89142177681558
 20
111.3008150881944
 30
0.0
 11
82.89849284462745
 21
111.3048870453323
 31
0.0
  0
LINE
  5
24A
330
77
100
AcDbEntity
  8
Visible (ISO)
100
AcDbLine
 10
82.68570398469663
 20
111.0147030508901
 30
0.0
 11
82.89142177681558
 21
111.3008150881944
 31
0.0
  0
LINE
  5
24B
330
77
100
AcDbEntity
  8
Visible (ISO)
100
AcDbLine
 10
82.61165704171476
 20
110.911718659047
 30
0.0
 11
82.61872810952665
 21
110.9157906161849
 31
0.0
  0
LINE
  5
24C
330
77
100
AcDbEntity
  8
Visible (ISO)
100
AcDbLine
 10
81.63198834603385
 20
109.5491967132429
 30
0.0
 11
82.61165704171476
 21
110.911718659047
 31
0.0
  0
LINE
  5
24D
330
77
100
AcDbEntity
  8
Visible (ISO)
100
AcDbLine
 10
81.63198834603385
 20
109.5491967132429
 30
0.0
 11
81.63905941384571
 21
109.5532686703808
 31
0.0
  0
LINE
  5
24E
330
77
100
AcDbEntity
  8
Visible (ISO)
100
AcDbLine
 10
81.63905941384571
 20
109.5532686703808
 30
0.0
 11
82.61872810952665
 21
110.9157906161849
 31
0.0
  0
LINE
  5
24F
330
77
100
AcDbEntity
  8
Visible (ISO)
100
AcDbLine
 10
83.0328431330529
 20
111.1748732960114
 30
0.0
 11
82.78901691306762
 21
110.8357601068719
 31
0.0
  0
LINE
  5
250
330
77
100
AcDbEntity
  8
Visible (ISO)
100
AcDbLine
 10
83.42434736279878
 20
109.7353373147597
 30
0.0
 11
83.43141843061065
 21
109.7394092718977
 31
0.0
  0
LINE
  5
251
330
77
100
AcDbEntity
  8
Visible (ISO)
100
AcDbLine
 10
83.77427112409108
 20
109.7716777012575
 30
0.0
 11
83.42434736279878
 21
109.7353373147597
 31
0.0
  0
LINE
  5
252
330
77
100
AcDbEntity
  8
Visible (ISO)
100
AcDbLine
 10
83.77427112409108
 20
109.7716777012575
 30
0.0
 11
83.78134219190293
 21
109.7757496583954
 31
0.0
  0
LINE
  5
253
330
77
100
AcDbEntity
  8
Visible (ISO)
100
AcDbLine
 10
83.78134219190293
 20
109.7757496583954
 30
0.0
 11
83.43141843061065
 21
109.7394092718977
 31
0.0
  0
LINE
  5
254
330
77
100
AcDbEntity
  8
Visible (ISO)
100
AcDbLine
 10
83.30546537359248
 20
109.7263287575716
 30
0.0
 11
83.29839430578061
 21
109.7222568004337
 31
0.0
  0
LINE
  5
255
330
77
100
AcDbEntity
  8
Visible (ISO)
100
AcDbLine
 10
83.30546537359248
 20
109.7263287575716
 30
0.0
 11
81.63905941384571
 21
109.5532686703808
 31
0.0
  0
LINE
  5
256
330
77
100
AcDbEntity
  8
Visible (ISO)
100
AcDbLine
 10
83.29839430578061
 20
109.7222568004337
 30
0.0
 11
81.63198834603385
 21
109.5491967132429
 31
0.0
  0
LINE
  5
257
330
77
100
AcDbEntity
  8
Visible (ISO)
100
AcDbLine
 10
83.32103443442779
 20
109.9142802587779
 30
0.0
 11
83.73578022340455
 21
109.9573525617678
 31
0.0
  0
LINE
  5
258
330
77
100
AcDbEntity
  8
Visible (ISO)
100
AcDbLine
 10
82.89849284462745
 20
111.3048870453323
 30
0.0
 11
82.89849284462745
 21
133.1241739845455
 31
0.0
  0
LINE
  5
259
330
77
100
AcDbEntity
  8
Visible (ISO)
100
AcDbLine
 10
82.89142177681558
 20
133.1201020274076
 30
0.0
 11
82.89849284462745
 21
133.1241739845455
 31
0.0
  0
LINE
  5
25A
330
77
100
AcDbEntity
  8
Visible (ISO)
100
AcDbLine
 10
82.89142177681558
 20
111.3008150881944
 30
0.0
 11
82.89142177681558
 21
133.1201020274076
 31
0.0
  0
LINE
  5
25B
330
77
100
AcDbEntity
  8
Visible (ISO)
100
AcDbLine
 10
82.72204103789762
 20
110.7368476721667
 30
0.0
 11
82.71496997008576
 21
110.7327757150287
 31
0.0
  0
LINE
  5
25C
330
77
100
AcDbEntity
  8
Visible (ISO)
100
AcDbLine
 10
82.71496997008576
 20
110.7327757150287
 30
0.0
 11
82.03006448904373
 21
109.7802100641761
 31
0.0
  0
LINE
  5
25D
330
77
100
AcDbEntity
  8
Visible (ISO)
100
AcDbLine
 10
83.19508137740966
 20
109.9011997444519
 30
0.0
 11
83.20215244522149
 21
109.9052717015898
 31
0.0
  0
LINE
  5
25E
330
77
100
AcDbEntity
  8
Visible (ISO)
100
AcDbLine
 10
82.03006448904373
 20
109.7802100641761
 30
0.0
 11
83.19508137740966
 21
109.9011997444519
 31
0.0
  0
LINE
  5
25F
330
77
100
AcDbEntity
  8
Visible (ISO)
100
AcDbLine
 10
83.73578022340455
 20
109.9573525617678
 30
0.0
 11
92.09802349461515
 21
105.1418569275569
 31
0.0
  0
LINE
  5
260
330
77
100
AcDbEntity
  8
Visible (ISO)
100
AcDbLine
 10
83.19508137740966
 20
109.9011997444519
 30
0.0
 11
82.71496997008576
 21
110.7327757150287
 31
0.0
  0
LINE
  5
261
330
77
100
AcDbEntity
  8
Visible (ISO)
100
AcDbLine
 10
83.20215244522149
 20
109.9052717015898
 30
0.0
 11
82.72204103789762
 21
110.7368476721667
 31
0.0
  0
LINE
  5
262
330
77
100
AcDbEntity
  8
Visible (ISO)
100
AcDbLine
 10
83.72573635186647
 20
108.9820798929052
 30
0.0
 11
83.29839430578061
 21
109.7222568004337
 31
0.0
  0
LINE
  5
263
330
77
100
AcDbEntity
  8
Visible (ISO)
100
AcDbLine
 10
83.72573635186647
 20
108.9820798929052
 30
0.0
 11
83.73280741967832
 21
108.9861518500431
 31
0.0
  0
LINE
  5
264
330
77
100
AcDbEntity
  8
Visible (ISO)
100
AcDbLine
 10
83.73280741967832
 20
108.9861518500431
 30
0.0
 11
83.30546537359248
 21
109.7263287575716
 31
0.0
  0
LINE
  5
265
330
77
100
AcDbEntity
  8
Visible (ISO)
100
AcDbLine
 10
83.42434736279878
 20
109.7353373147597
 30
0.0
 11
83.78431499562916
 21
109.1118561204351
 31
0.0
  0
LINE
  5
266
330
77
100
AcDbEntity
  8
Visible (ISO)
100
AcDbLine
 10
82.78901691306762
 20
110.8357601068719
 30
0.0
 11
83.32103443442779
 21
109.9142802587779
 31
0.0
  0
LINE
  5
267
330
77
100
AcDbEntity
  8
Visible (ISO)
100
AcDbLine
 10
82.53852521179707
 20
133.7476551788702
 30
0.0
 11
82.5314541439852
 21
133.7435832217322
 31
0.0
  0
LINE
  5
268
330
77
100
AcDbEntity
  8
Visible (ISO)
100
AcDbLine
 10
82.5314541439852
 20
133.7435832217322
 30
0.0
 11
82.32573635186627
 21
133.457471184428
 31
0.0
  0
LINE
  5
269
330
77
100
AcDbEntity
  8
Visible (ISO)
100
AcDbLine
 10
83.585169782648
 20
135.2090895593795
 30
0.0
 11
82.60550108696708
 21
133.8465676135754
 31
0.0
  0
LINE
  5
26A
330
77
100
AcDbEntity
  8
Visible (ISO)
100
AcDbLine
 10
82.42814121561421
 20
133.9225261657504
 30
0.0
 11
82.43521228342608
 21
133.9265981228884
 31
0.0
  0
LINE
  5
26B
330
77
100
AcDbEntity
  8
Visible (ISO)
100
AcDbLine
 10
82.18431499562894
 20
133.583412976611
 30
0.0
 11
82.42814121561421
 21
133.9225261657504
 31
0.0
  0
LINE
  5
26C
330
77
100
AcDbEntity
  8
Visible (ISO)
100
AcDbLine
 10
82.18431499562894
 20
133.583412976611
 30
0.0
 11
82.19138606344079
 21
133.5874849337489
 31
0.0
  0
LINE
  5
26D
330
77
100
AcDbEntity
  8
Visible (ISO)
100
AcDbLine
 10
82.19138606344079
 20
133.5874849337489
 30
0.0
 11
82.43521228342608
 21
133.9265981228884
 31
0.0
  0
LINE
  5
26E
330
77
100
AcDbEntity
  8
Visible (ISO)
100
AcDbLine
 10
81.79281076588305
 20
135.0229489578626
 30
0.0
 11
81.79988183369491
 21
135.0270209150006
 31
0.0
  0
LINE
  5
26F
330
77
100
AcDbEntity
  8
Visible (ISO)
100
AcDbLine
 10
81.44288700459076
 20
134.9866085713649
 30
0.0
 11
81.79281076588305
 21
135.0229489578626
 31
0.0
  0
LINE
  5
270
330
77
100
AcDbEntity
  8
Visible (ISO)
100
AcDbLine
 10
81.91876382290121
 20
135.0360294721887
 30
0.0
 11
83.585169782648
 21
135.2090895593795
 31
0.0
  0
LINE
  5
271
330
77
100
AcDbEntity
  8
Visible (ISO)
100
AcDbLine
 10
81.90319476206591
 20
134.8480779709824
 30
0.0
 11
81.89612369425404
 21
134.8440060138444
 31
0.0
  0
LINE
  5
272
330
77
100
AcDbEntity
  8
Visible (ISO)
100
AcDbLine
 10
81.90319476206591
 20
134.8480779709824
 30
0.0
 11
81.48844897308917
 21
134.8050056679925
 31
0.0
  0
LINE
  5
273
330
77
100
AcDbEntity
  8
Visible (ISO)
100
AcDbLine
 10
81.48137790527728
 20
134.8009337108546
 30
0.0
 11
81.48844897308917
 21
134.8050056679925
 31
0.0
  0
LINE
  5
274
330
77
100
AcDbEntity
  8
Visible (ISO)
100
AcDbLine
 10
81.89612369425404
 20
134.8440060138444
 30
0.0
 11
81.48137790527728
 21
134.8009337108546
 31
0.0
  0
LINE
  5
275
330
77
100
AcDbEntity
  8
Visible (ISO)
100
AcDbLine
 10
82.32573635186627
 20
133.457471184428
 30
0.0
 11
82.32573635186625
 21
111.6381842452148
 31
0.0
  0
LINE
  5
276
330
77
100
AcDbEntity
  8
Visible (ISO)
100
AcDbLine
 10
82.50925922640794
 20
134.0295825147316
 30
0.0
 11
82.50218815859609
 21
134.0255105575936
 31
0.0
  0
LINE
  5
277
330
77
100
AcDbEntity
  8
Visible (ISO)
100
AcDbLine
 10
82.50925922640794
 20
134.0295825147316
 30
0.0
 11
83.19416470744997
 21
134.9821481655842
 31
0.0
  0
LINE
  5
278
330
77
100
AcDbEntity
  8
Visible (ISO)
100
AcDbLine
 10
83.1870936396381
 20
134.9780762084463
 30
0.0
 11
83.19416470744997
 21
134.9821481655842
 31
0.0
  0
LINE
  5
279
330
77
100
AcDbEntity
  8
Visible (ISO)
100
AcDbLine
 10
82.50218815859609
 20
134.0255105575936
 30
0.0
 11
83.1870936396381
 21
134.9780762084463
 31
0.0
  0
LINE
  5
27A
330
77
100
AcDbEntity
  8
Visible (ISO)
100
AcDbLine
 10
82.02207675127221
 20
134.8570865281705
 30
0.0
 11
82.02914781908408
 21
134.8611584853084
 31
0.0
  0
LINE
  5
27B
330
77
100
AcDbEntity
  8
Visible (ISO)
100
AcDbLine
 10
83.1870936396381
 20
134.9780762084463
 30
0.0
 11
82.02207675127221
 21
134.8570865281705
 31
0.0
  0
LINE
  5
27C
330
77
100
AcDbEntity
  8
Visible (ISO)
100
AcDbLine
 10
83.19416470744997
 20
134.9821481655842
 30
0.0
 11
82.02914781908408
 21
134.8611584853084
 31
0.0
  0
LINE
  5
27D
330
77
100
AcDbEntity
  8
Visible (ISO)
100
AcDbLine
 10
82.02207675127221
 20
134.8570865281705
 30
0.0
 11
82.50218815859609
 21
134.0255105575936
 31
0.0
  0
LINE
  5
27E
330
77
100
AcDbEntity
  8
Visible (ISO)
100
AcDbLine
 10
81.49142177681538
 20
135.7762063797172
 30
0.0
 11
81.91876382290121
 21
135.0360294721887
 31
0.0
  0
LINE
  5
27F
330
77
100
AcDbEntity
  8
Visible (ISO)
100
AcDbLine
 10
81.79988183369491
 20
135.0270209150006
 30
0.0
 11
81.43991420086454
 21
135.6505021093252
 31
0.0
  0
LINE
  5
280
330
77
100
AcDbEntity
  8
Visible (ISO)
100
AcDbLine
 10
81.79281076588305
 20
135.0229489578626
 30
0.0
 11
81.43284313305267
 21
135.6464301521873
 31
0.0
  0
LINE
  5
281
330
77
100
AcDbEntity
  8
Visible (ISO)
100
AcDbLine
 10
82.43521228342608
 20
133.9265981228884
 30
0.0
 11
81.90319476206591
 21
134.8480779709824
 31
0.0
  0
LINE
  5
282
330
77
100
AcDbEntity
  8
Visible (ISO)
100
AcDbLine
 10
82.42814121561421
 20
133.9225261657504
 30
0.0
 11
81.89612369425404
 21
134.8440060138444
 31
0.0
  0
LINE
  5
283
330
77
100
AcDbEntity
  8
Visible (ISO)
100
AcDbLine
 10
82.60550108696708
 20
133.8465676135754
 30
0.0
 11
83.03284313305292
 21
133.1063907060469
 31
0.0
  0
LINE
  5
284
330
77
100
AcDbEntity
  8
Visible (ISO)
100
AcDbLine
 10
83.03284313305292
 20
133.1063907060469
 30
0.0
 11
83.0328431330529
 21
111.1748732960113
 31
0.0
  0
LINE
  5
285
330
77
100
AcDbEntity
  8
Visible (ISO)
100
AcDbLine
 10
82.89142177681558
 20
133.1201020274076
 30
0.0
 11
82.5314541439852
 21
133.7435832217322
 31
0.0
  0
LINE
  5
286
330
77
100
AcDbEntity
  8
Visible (ISO)
100
AcDbLine
 10
82.89849284462745
 20
133.1241739845455
 30
0.0
 11
82.53852521179707
 21
133.7476551788702
 31
0.0
  0
LINE
  5
287
330
77
100
AcDbEntity
  8
Visible (ISO)
100
AcDbLine
 10
93.14512692959686
 20
103.1133057267099
 30
0.0
 11
93.13805586178501
 21
103.1092337695719
 31
0.0
  0
LINE
  5
288
330
77
100
AcDbEntity
  8
Visible (ISO)
100
AcDbLine
 10
93.13805586178501
 20
103.1092337695719
 30
0.0
 11
92.93233806966604
 21
102.8231217322677
 31
0.0
  0
LINE
  5
289
330
77
100
AcDbEntity
  8
Visible (ISO)
100
AcDbLine
 10
94.19177150044777
 20
104.5747401072192
 30
0.0
 11
93.21210280476686
 21
103.2122181614151
 31
0.0
  0
LINE
  5
28A
330
77
100
AcDbEntity
  8
Visible (ISO)
100
AcDbLine
 10
93.034742933414
 20
103.2881767135902
 30
0.0
 11
93.04181400122585
 21
103.2922486707281
 31
0.0
  0
LINE
  5
28B
330
77
100
AcDbEntity
  8
Visible (ISO)
100
AcDbLine
 10
92.79091671342872
 20
102.9490635244507
 30
0.0
 11
93.034742933414
 21
103.2881767135902
 31
0.0
  0
LINE
  5
28C
330
77
100
AcDbEntity
  8
Visible (ISO)
100
AcDbLine
 10
92.79798778124058
 20
102.9531354815887
 30
0.0
 11
93.04181400122585
 21
103.2922486707281
 31
0.0
  0
LINE
  5
28D
330
77
100
AcDbEntity
  8
Visible (ISO)
100
AcDbLine
 10
92.39941248368282
 20
104.3885995057023
 30
0.0
 11
92.40648355149469
 21
104.3926714628403
 31
0.0
  0
LINE
  5
28E
330
77
100
AcDbEntity
  8
Visible (ISO)
100
AcDbLine
 10
92.04948872239056
 20
104.3522591192046
 30
0.0
 11
92.39941248368282
 21
104.3885995057023
 31
0.0
  0
LINE
  5
28F
330
77
100
AcDbEntity
  8
Visible (ISO)
100
AcDbLine
 10
92.52536554070099
 20
104.4016800200284
 30
0.0
 11
94.19177150044777
 21
104.5747401072192
 31
0.0
  0
LINE
  5
290
330
77
100
AcDbEntity
  8
Visible (ISO)
100
AcDbLine
 10
92.50979647986568
 20
104.2137285188221
 30
0.0
 11
92.50272541205383
 21
104.2096565616841
 31
0.0
  0
LINE
  5
291
330
77
100
AcDbEntity
  8
Visible (ISO)
100
AcDbLine
 10
92.50979647986568
 20
104.2137285188221
 30
0.0
 11
92.09505069088892
 21
104.1706562158322
 31
0.0
  0
LINE
  5
292
330
77
100
AcDbEntity
  8
Visible (ISO)
100
AcDbLine
 10
92.08797962307706
 20
104.1665842586943
 30
0.0
 11
92.09505069088892
 21
104.1706562158322
 31
0.0
  0
LINE
  5
293
330
77
100
AcDbEntity
  8
Visible (ISO)
100
AcDbLine
 10
92.50272541205383
 20
104.2096565616841
 30
0.0
 11
92.08797962307706
 21
104.1665842586943
 31
0.0
  0
LINE
  5
294
330
77
100
AcDbEntity
  8
Visible (ISO)
100
AcDbLine
 10
92.93233806966604
 20
102.8231217322677
 30
0.0
 11
92.93233806966604
 21
95.70807045423363
 31
0.0
  0
LINE
  5
295
330
77
100
AcDbEntity
  8
Visible (ISO)
100
AcDbLine
 10
93.11586094420773
 20
103.3952330625712
 30
0.0
 11
93.10878987639586
 21
103.3911611054333
 31
0.0
  0
LINE
  5
296
330
77
100
AcDbEntity
  8
Visible (ISO)
100
AcDbLine
 10
93.11586094420773
 20
103.3952330625712
 30
0.0
 11
93.80076642524974
 21
104.3477987134239
 31
0.0
  0
LINE
  5
297
330
77
100
AcDbEntity
  8
Visible (ISO)
100
AcDbLine
 10
93.79369535743789
 20
104.343726756286
 30
0.0
 11
93.80076642524974
 21
104.3477987134239
 31
0.0
  0
LINE
  5
298
330
77
100
AcDbEntity
  8
Visible (ISO)
100
AcDbLine
 10
93.10878987639586
 20
103.3911611054333
 30
0.0
 11
93.79369535743789
 21
104.343726756286
 31
0.0
  0
LINE
  5
299
330
77
100
AcDbEntity
  8
Visible (ISO)
100
AcDbLine
 10
92.62867846907198
 20
104.2227370760102
 30
0.0
 11
92.63574953688385
 21
104.2268090331481
 31
0.0
  0
LINE
  5
29A
330
77
100
AcDbEntity
  8
Visible (ISO)
100
AcDbLine
 10
93.79369535743789
 20
104.343726756286
 30
0.0
 11
92.62867846907198
 21
104.2227370760102
 31
0.0
  0
LINE
  5
29B
330
77
100
AcDbEntity
  8
Visible (ISO)
100
AcDbLine
 10
93.80076642524974
 20
104.3477987134239
 30
0.0
 11
92.63574953688385
 21
104.2268090331481
 31
0.0
  0
LINE
  5
29C
330
77
100
AcDbEntity
  8
Visible (ISO)
100
AcDbLine
 10
92.09505069088892
 20
104.1706562158322
 30
0.0
 11
83.73280741967832
 21
108.9861518500431
 31
0.0
  0
LINE
  5
29D
330
77
100
AcDbEntity
  8
Visible (ISO)
100
AcDbLine
 10
92.08797962307706
 20
104.1665842586943
 30
0.0
 11
83.72573635186647
 21
108.9820798929052
 31
0.0
  0
LINE
  5
29E
330
77
100
AcDbEntity
  8
Visible (ISO)
100
AcDbLine
 10
92.62867846907198
 20
104.2227370760102
 30
0.0
 11
93.10878987639586
 21
103.3911611054333
 31
0.0
  0
LINE
  5
29F
330
77
100
AcDbEntity
  8
Visible (ISO)
100
AcDbLine
 10
92.09802349461515
 20
105.1418569275569
 30
0.0
 11
92.52536554070099
 21
104.4016800200284
 31
0.0
  0
LINE
  5
2A0
330
77
100
AcDbEntity
  8
Visible (ISO)
100
AcDbLine
 10
92.40648355149469
 20
104.3926714628403
 30
0.0
 11
92.04651591866431
 21
105.0161526571649
 31
0.0
  0
LINE
  5
2A1
330
77
100
AcDbEntity
  8
Visible (ISO)
100
AcDbLine
 10
92.03944485085246
 20
105.012080700027
 30
0.0
 11
92.04651591866431
 21
105.0161526571649
 31
0.0
  0
LINE
  5
2A2
330
77
100
AcDbEntity
  8
Visible (ISO)
100
AcDbLine
 10
92.39941248368282
 20
104.3885995057023
 30
0.0
 11
92.03944485085246
 21
105.012080700027
 31
0.0
  0
LINE
  5
2A3
330
77
100
AcDbEntity
  8
Visible (ISO)
100
AcDbLine
 10
93.04181400122585
 20
103.2922486707281
 30
0.0
 11
92.50979647986568
 21
104.2137285188221
 31
0.0
  0
LINE
  5
2A4
330
77
100
AcDbEntity
  8
Visible (ISO)
100
AcDbLine
 10
93.034742933414
 20
103.2881767135902
 30
0.0
 11
92.50272541205383
 21
104.2096565616841
 31
0.0
  0
LINE
  5
2A5
330
77
100
AcDbEntity
  8
Visible (ISO)
100
AcDbLine
 10
93.21210280476686
 20
103.2122181614151
 30
0.0
 11
93.63944485085269
 21
102.4720412538866
 31
0.0
  0
LINE
  5
2A6
330
77
100
AcDbEntity
  8
Visible (ISO)
100
AcDbLine
 10
93.63944485085269
 20
102.4720412538866
 30
0.0
 11
93.63944485085269
 21
95.24475950503017
 31
0.0
  0
LINE
  5
2A7
330
77
100
AcDbEntity
  8
Visible (ISO)
100
AcDbLine
 10
93.49802349461539
 20
102.4857525752473
 30
0.0
 11
93.13805586178501
 21
103.1092337695719
 31
0.0
  0
LINE
  5
2A8
330
77
100
AcDbEntity
  8
Visible (ISO)
100
AcDbLine
 10
93.49802349461539
 20
102.4857525752473
 30
0.0
 11
93.50509456242722
 21
102.4898245323852
 31
0.0
  0
LINE
  5
2A9
330
77
100
AcDbEntity
  8
Visible (ISO)
100
AcDbLine
 10
93.50509456242722
 20
102.4898245323852
 30
0.0
 11
93.14512692959686
 21
103.1133057267099
 31
0.0
  0
LINE
  5
2AA
330
77
100
AcDbEntity
  8
Visible (ISO)
100
AcDbLine
 10
92.04651591866431
 20
105.0161526571649
 30
0.0
 11
83.78134219190293
 21
109.7757496583954
 31
0.0
  0
LINE
  5
2AB
330
77
100
AcDbEntity
  8
Visible (ISO)
100
AcDbLine
 10
92.03944485085246
 20
105.012080700027
 30
0.0
 11
83.77427112409108
 21
109.7716777012575
 31
0.0
  0
LINE
  5
2AC
330
77
100
AcDbEntity
  8
Visible (ISO)
100
AcDbLine
 10
92.52536554070102
 20
94.598231952041
 30
0.0
 11
92.09802349461515
 21
94.3502348796354
 31
0.0
  0
LINE
  5
2AD
330
77
100
AcDbEntity
  8
Visible (ISO)
100
AcDbLine
 10
92.03944485085246
 20
94.5474775020425
 30
0.0
 11
92.39941248368284
 21
94.75637554968457
 31
0.0
  0
LINE
  5
2AE
330
77
100
AcDbEntity
  8
Visible (ISO)
100
AcDbLine
 10
92.03944485085246
 20
94.5474775020425
 30
0.0
 11
92.04651591866435
 21
94.55154945918042
 31
0.0
  0
LINE
  5
2AF
330
77
100
AcDbEntity
  8
Visible (ISO)
100
AcDbLine
 10
92.04651591866435
 20
94.55154945918042
 30
0.0
 11
92.40648355149472
 21
94.7604475068225
 31
0.0
  0
LINE
  5
2B0
330
77
100
AcDbEntity
  8
Visible (ISO)
100
AcDbLine
 10
93.50509456242724
 20
95.39799842632433
 30
0.0
 11
93.50509456242722
 21
102.4898245323852
 31
0.0
  0
LINE
  5
2B1
330
77
100
AcDbEntity
  8
Visible (ISO)
100
AcDbLine
 10
93.49802349461539
 20
95.3939264691864
 30
0.0
 11
93.49802349461539
 21
102.4857525752473
 31
0.0
  0
LINE
  5
2B2
330
77
100
AcDbEntity
  8
Visible (ISO)
100
AcDbLine
 10
82.61872810952665
 20
110.9157906161849
 30
0.0
 11
82.19138606344078
 21
111.6559675237134
 31
0.0
  0
LINE
  5
2B3
330
77
100
AcDbEntity
  8
Visible (ISO)
100
AcDbLine
 10
82.18431499562891
 20
111.6518955665755
 30
0.0
 11
82.19138606344078
 21
111.6559675237134
 31
0.0
  0
LINE
  5
2B4
330
77
100
AcDbEntity
  8
Visible (ISO)
100
AcDbLine
 10
82.61165704171476
 20
110.911718659047
 30
0.0
 11
82.18431499562891
 21
111.6518955665755
 31
0.0
  0
LINE
  5
2B5
330
77
100
AcDbEntity
  8
Visible (ISO)
100
AcDbLine
 10
82.19138606344078
 20
111.6559675237134
 30
0.0
 11
82.19138606344079
 21
133.5874849337489
 31
0.0
  0
LINE
  5
2B6
330
77
100
AcDbEntity
  8
Visible (ISO)
100
AcDbLine
 10
82.18431499562891
 20
111.6518955665755
 30
0.0
 11
82.18431499562894
 21
133.583412976611
 31
0.0
  0
LINE
  5
2B7
330
77
100
AcDbEntity
  8
Visible (ISO)
100
AcDbLine
 10
82.32573635186625
 20
111.6381842452148
 30
0.0
 11
82.68570398469663
 21
111.0147030508901
 31
0.0
  0
LINE
  5
2B8
330
77
100
AcDbEntity
  8
Visible (ISO)
100
AcDbLine
 10
83.78431499562916
 20
109.1118561204351
 30
0.0
 11
92.04948872239056
 21
104.3522591192046
 31
0.0
  0
ELLIPSE
  5
2B9
330
77
100
AcDbEntity
  8
Visible (ISO)
100
AcDbEllipse
 10
88.97254009502079
 20
101.5458920904874
 30
0.0
 11
-0.7485483173766074
 21
1.299875154217763
 31
0.0
210
0.0
220
0.0
230
1.0
 40
0.5780931159158105
 41
0.0
 42
6.283185307179586
  0
ELLIPSE
  5
2BA
330
77
100
AcDbEntity
  8
Visible (ISO)
100
AcDbEllipse
 10
94.13441959768336
 20
92.60526936845327
 30
0.0
 11
0.0998064423168801
 21
-0.1733166872290335
 31
0.0
210
0.0
220
0.0
230
1.0
 40
0.5780931159158106
 41
5.499720852205022
 42
7.070517178999934
  0
LINE
  5
2BB
330
77
100
AcDbEntity
  8
Visible (ISO)
100
AcDbLine
 10
94.27584095392068
 20
92.52383022569482
 30
0.0
 11
94.27584095392068
 21
104.4600182483959
 31
0.0
  0
ELLIPSE
  5
2BC
330
77
100
AcDbEntity
  8
Visible (ISO)
100
AcDbEllipse
 10
94.13441959768336
 20
104.5414573911543
 30
0.0
 11
-0.0998064423168892
 21
0.1733166872290253
 31
0.0
210
0.0
220
0.0
230
1.0
 40
0.5780931159158105
 41
3.928924525409923
 42
5.49972085220485
  0
LINE
  5
2BD
330
77
100
AcDbEntity
  8
Visible (ISO)
100
AcDbLine
 10
94.13441959768336
 20
104.7049668161228
 30
0.0
 11
84.37634601730755
 21
110.3242676664562
 31
0.0
  0
ELLIPSE
  5
2BE
330
77
100
AcDbEntity
  8
Visible (ISO)
100
AcDbEllipse
 10
84.37634601730755
 20
111.1418147912987
 30
0.0
 11
-0.4990322115843524
 21
0.8665834361452033
 31
0.0
210
0.0
220
0.0
230
1.0
 40
0.5780931159158105
 41
0.7873318718205536
 42
2.358128198615476
  0
LINE
  5
2BF
330
77
100
AcDbEntity
  8
Visible (ISO)
100
AcDbLine
 10
83.66923923612089
 20
111.549010505091
 30
0.0
 11
83.66923923612089
 21
135.0943677005562
 31
0.0
  0
ELLIPSE
  5
2C0
330
77
100
AcDbEntity
  8
Visible (ISO)
100
AcDbEllipse
 10
83.52781787988357
 20
135.1758068433146
 30
0.0
 11
-0.0998064423168909
 21
0.1733166872290281
 31
0.0
210
0.0
220
0.0
230
1.0
 40
0.5780931159158106
 41
3.928924525409923
 42
5.49972085220485
  0
LINE
  5
2C1
330
77
100
AcDbEntity
  8
Visible Narrow (ISO)
100
AcDbLine
 10
85.43700618908721
 20
110.9350612371448
 30
0.0
 11
84.37634601730755
 21
110.3242676664562
 31
0.0
  0
LINE
  5
2C2
330
77
100
AcDbEntity
  8
Visible Narrow (ISO)
100
AcDbLine
 10
83.66923923612089
 20
111.549010505091
 30
0.0
 11
84.72989940790055
 21
112.1598040757796
 31
0.0
  0
LINE
  5
2C3
330
77
100
AcDbEntity
  8
Visible Narrow (ISO)
100
AcDbLine
 10
84.72989940790055
 20
135.7051612712448
 30
0.0
 11
83.66923923612089
 21
135.0943677005562
 31
0.0
  0
LINE
  5
2C4
330
77
100
AcDbEntity
  8
Visible Narrow (ISO)
100
AcDbLine
 10
95.33650112570034
 20
105.0708118190845
 30
0.0
 11
94.27584095392068
 21
104.4600182483959
 31
0.0
  0
LINE
  5
2C5
330
77
100
AcDbEntity
  8
Visible Narrow (ISO)
100
AcDbLine
 10
94.13441959768336
 20
104.7049668161228
 30
0.0
 11
95.19507976946302
 21
105.3157603868114
 31
0.0
  0
LINE
  5
2C6
330
77
100
AcDbEntity
  8
Visible Narrow (ISO)
100
AcDbLine
 10
94.27584095392068
 20
92.52383022569482
 30
0.0
 11
95.33650112570034
 21
93.13462379638341
 31
0.0
  0
LINE
  5
2C7
330
77
100
AcDbEntity
  8
Visible Narrow (ISO)
100
AcDbLine
 10
83.52781787988357
 20
135.3393162682831
 30
0.0
 11
84.58847805166323
 21
135.9501098389717
 31
0.0
  0
LINE
  5
2C8
330
77
100
AcDbEntity
  8
Visible (ISO)
100
AcDbLine
 10
94.23422604000023
 20
92.43195268122423
 30
0.0
 11
95.29488621177989
 21
93.04274625191283
 31
0.0
  0
LINE
  5
2C9
330
77
100
AcDbEntity
  8
Visible (ISO)
100
AcDbLine
 10
75.30610468920119
 20
139.1827280882305
 30
0.0
 11
81.43991420086454
 21
135.6505021093252
 31
0.0
  0
LINE
  5
2CA
330
77
100
AcDbEntity
  8
Visible (ISO)
100
AcDbLine
 10
75.29903362138933
 20
139.1786561310926
 30
0.0
 11
75.30610468920119
 21
139.1827280882305
 31
0.0
  0
LINE
  5
2CB
330
77
100
AcDbEntity
  8
Visible (ISO)
100
AcDbLine
 10
81.43284313305267
 20
135.6464301521873
 30
0.0
 11
75.29903362138933
 21
139.1786561310926
 31
0.0
  0
LINE
  5
2CC
330
77
100
AcDbEntity
  8
Visible (ISO)
100
AcDbLine
 10
64.64092432763871
 20
110.169870624324
 30
0.0
 11
92.10506726840494
 21
94.35432255435532
 31
0.0
  0
LINE
  5
2CD
330
77
100
AcDbEntity
  8
Visible (ISO)
100
AcDbLine
 10
64.63385325982685
 20
110.165798667186
 30
0.0
 11
64.64092432763871
 21
110.169870624324
 31
0.0
  0
LINE
  5
2CE
330
77
100
AcDbEntity
  8
Visible (ISO)
100
AcDbLine
 10
92.09802349461515
 20
94.3502348796354
 30
0.0
 11
64.63385325982685
 21
110.165798667186
 31
0.0
  0
LINE
  5
2CF
330
77
100
AcDbEntity
  8
Visible (ISO)
100
AcDbLine
 10
64.68945909986331
 20
110.9594684326763
 30
0.0
 11
92.05655979020242
 21
95.19980327810605
 31
0.0
  0
LINE
  5
2D0
330
77
100
AcDbEntity
  8
Visible (ISO)
100
AcDbLine
 10
64.68238803205145
 20
110.9553964755384
 30
0.0
 11
64.68945909986331
 21
110.9594684326763
 31
0.0
  0
LINE
  5
2D1
330
77
100
AcDbEntity
  8
Visible (ISO)
100
AcDbLine
 10
92.04948872239056
 20
95.19573132096812
 30
0.0
 11
64.68238803205145
 21
110.9553964755384
 31
0.0
  0
LINE
  5
2D2
330
77
100
AcDbEntity
  8
Visible (ISO)
100
AcDbLine
 10
64.69243190358955
 20
110.295574894716
 30
0.0
 11
92.03944485085246
 21
94.5474775020425
 31
0.0
  0
LINE
  5
2D3
330
77
100
AcDbEntity
  8
Visible (ISO)
100
AcDbLine
 10
64.68238803205145
 20
110.9553964755384
 30
0.0
 11
64.33246427075918
 21
110.9190560890407
 31
0.0
  0
LINE
  5
2D4
330
77
100
AcDbEntity
  8
Visible (ISO)
100
AcDbLine
 10
64.33246427075918
 20
110.9190560890407
 30
0.0
 11
64.69243190358955
 21
110.295574894716
 31
0.0
  0
LINE
  5
2D5
330
77
100
AcDbEntity
  8
Visible (ISO)
100
AcDbLine
 10
81.48137790527728
 20
134.8009337108546
 30
0.0
 11
75.25049884916473
 21
138.3890583227402
 31
0.0
  0
LINE
  5
2D6
330
77
100
AcDbEntity
  8
Visible (ISO)
100
AcDbLine
 10
75.25049884916473
 20
138.3890583227402
 30
0.0
 11
74.83575306018797
 21
138.9098030567633
 31
0.0
  0
LINE
  5
2D7
330
77
100
AcDbEntity
  8
Visible (ISO)
100
AcDbLine
 10
74.83575306018797
 20
138.9098030567633
 30
0.0
 11
74.30373553882779
 21
138.601060238278
 31
0.0
  0
LINE
  5
2D8
330
77
100
AcDbEntity
  8
Visible (ISO)
100
AcDbLine
 10
74.30373553882779
 20
138.601060238278
 30
0.0
 11
74.54756175881307
 21
137.9811266855676
 31
0.0
  0
LINE
  5
2D9
330
77
100
AcDbEntity
  8
Visible (ISO)
100
AcDbLine
 10
74.54756175881307
 20
137.9811266855676
 30
0.0
 11
74.54756175881309
 21
116.049609275532
 31
0.0
  0
LINE
  5
2DA
330
77
100
AcDbEntity
  8
Visible (ISO)
100
AcDbLine
 10
74.54756175881309
 20
116.049609275532
 30
0.0
 11
74.12021971272725
 21
115.8016122031264
 31
0.0
  0
LINE
  5
2DB
330
77
100
AcDbEntity
  8
Visible (ISO)
100
AcDbLine
 10
74.12021971272725
 20
115.8016122031264
 30
0.0
 11
75.09988840840816
 21
113.3107828943289
 31
0.0
  0
LINE
  5
2DC
330
77
100
AcDbEntity
  8
Visible (ISO)
100
AcDbLine
 10
75.09988840840816
 20
113.3107828943289
 30
0.0
 11
73.43348244866138
 21
115.4030817225428
 31
0.0
  0
LINE
  5
2DD
330
77
100
AcDbEntity
  8
Visible (ISO)
100
AcDbLine
 10
73.43348244866138
 20
115.4030817225428
 30
0.0
 11
73.00614040257555
 21
115.1550846501372
 31
0.0
  0
LINE
  5
2DE
330
77
100
AcDbEntity
  8
Visible (ISO)
100
AcDbLine
 10
73.00614040257555
 20
115.1550846501372
 30
0.0
 11
64.64389713136495
 21
119.9705802843481
 31
0.0
  0
LINE
  5
2DF
330
77
100
AcDbEntity
  8
Visible (ISO)
100
AcDbLine
 10
64.64389713136495
 20
119.9705802843481
 30
0.0
 11
64.22915134238819
 21
120.4913250183712
 31
0.0
  0
LINE
  5
2E0
330
77
100
AcDbEntity
  8
Visible (ISO)
100
AcDbLine
 10
64.22915134238819
 20
120.4913250183712
 30
0.0
 11
63.69713382102801
 21
120.1825821998859
 31
0.0
  0
LINE
  5
2E1
330
77
100
AcDbEntity
  8
Visible (ISO)
100
AcDbLine
 10
63.69713382102801
 20
120.1825821998859
 30
0.0
 11
63.9409600410133
 21
119.5626486471755
 31
0.0
  0
LINE
  5
2E2
330
77
100
AcDbEntity
  8
Visible (ISO)
100
AcDbLine
 10
63.9409600410133
 20
119.5626486471755
 30
0.0
 11
63.9409600410133
 21
112.3585920702923
 31
0.0
  0
LINE
  5
2E3
330
77
100
AcDbEntity
  8
Visible (ISO)
100
AcDbLine
 10
63.9409600410133
 20
112.3585920702923
 30
0.0
 11
63.69713382102801
 21
112.0194788811528
 31
0.0
  0
LINE
  5
2E4
330
77
100
AcDbEntity
  8
Visible (ISO)
100
AcDbLine
 10
63.69713382102801
 20
112.0194788811528
 30
0.0
 11
64.22915134238817
 21
111.0979990330588
 31
0.0
  0
LINE
  5
2E5
330
77
100
AcDbEntity
  8
Visible (ISO)
100
AcDbLine
 10
64.22915134238817
 20
111.0979990330588
 30
0.0
 11
64.64389713136492
 21
111.1410713360487
 31
0.0
  0
LINE
  5
2E6
330
77
100
AcDbEntity
  8
Visible (ISO)
100
AcDbLine
 10
64.64389713136492
 20
111.1410713360487
 30
0.0
 11
92.08797962307711
 21
95.33707531039484
 31
0.0
  0
LINE
  5
2E7
330
77
100
AcDbEntity
  8
Visible (ISO)
100
AcDbLine
 10
75.29903362138933
 20
139.1786561310926
 30
0.0
 11
74.93906598855897
 21
138.9697580834505
 31
0.0
  0
LINE
  5
2E8
330
77
100
AcDbEntity
  8
Visible (ISO)
100
AcDbLine
 10
74.93906598855897
 20
138.9697580834505
 30
0.0
 11
75.28898974985124
 21
138.530402312167
 31
0.0
  0
LINE
  5
2E9
330
77
100
AcDbEntity
  8
Visible (ISO)
100
AcDbLine
 10
75.28898974985124
 20
138.530402312167
 30
0.0
 11
81.44288700459076
 21
134.9866085713649
 31
0.0
  0
LINE
  5
2EA
330
77
100
AcDbEntity
  8
Visible (ISO)
100
AcDbLine
 10
75.24045497762663
 20
139.3758987534997
 30
0.0
 11
81.49142177681538
 21
135.7762063797172
 31
0.0
  0
LINE
  5
2EB
330
77
100
AcDbEntity
  8
Visible (ISO)
100
AcDbLine
 10
64.63385325982685
 20
110.165798667186
 30
0.0
 11
64.20651121374101
 21
110.9059755747146
 31
0.0
  0
LINE
  5
2EC
330
77
100
AcDbEntity
  8
Visible (ISO)
100
AcDbLine
 10
64.20651121374101
 20
110.9059755747146
 30
0.0
 11
62.54010525399423
 21
110.7329154875237
 31
0.0
  0
LINE
  5
2ED
330
77
100
AcDbEntity
  8
Visible (ISO)
100
AcDbLine
 10
62.54010525399423
 20
110.7329154875237
 30
0.0
 11
63.51977394967514
 21
112.0954374333279
 31
0.0
  0
LINE
  5
2EE
330
77
100
AcDbEntity
  8
Visible (ISO)
100
AcDbLine
 10
63.51977394967514
 20
112.0954374333279
 30
0.0
 11
63.09243190358931
 21
112.8356143408564
 31
0.0
  0
LINE
  5
2EF
330
77
100
AcDbEntity
  8
Visible (ISO)
100
AcDbLine
 10
63.09243190358931
 20
112.8356143408564
 30
0.0
 11
63.09243190358931
 21
120.0628960897128
 31
0.0
  0
LINE
  5
2F0
330
77
100
AcDbEntity
  8
Visible (ISO)
100
AcDbLine
 10
63.09243190358931
 20
120.0628960897128
 30
0.0
 11
63.51977394967516
 21
120.3108931621184
 31
0.0
  0
LINE
  5
2F1
330
77
100
AcDbEntity
  8
Visible (ISO)
100
AcDbLine
 10
63.51977394967516
 20
120.3108931621184
 30
0.0
 11
62.54010525399424
 21
122.8017224709159
 31
0.0
  0
LINE
  5
2F2
330
77
100
AcDbEntity
  8
Visible (ISO)
100
AcDbLine
 10
62.54010525399424
 20
122.8017224709159
 30
0.0
 11
64.20651121374103
 21
120.709423642702
 31
0.0
  0
LINE
  5
2F3
330
77
100
AcDbEntity
  8
Visible (ISO)
100
AcDbLine
 10
64.20651121374103
 20
120.709423642702
 30
0.0
 11
64.63385325982686
 21
120.9574207151076
 31
0.0
  0
LINE
  5
2F4
330
77
100
AcDbEntity
  8
Visible (ISO)
100
AcDbLine
 10
64.63385325982686
 20
120.9574207151076
 30
0.0
 11
72.99609653103747
 21
116.1419250808967
 31
0.0
  0
LINE
  5
2F5
330
77
100
AcDbEntity
  8
Visible (ISO)
100
AcDbLine
 10
72.99609653103747
 20
116.1419250808967
 30
0.0
 11
73.41084232001422
 21
115.6211803468737
 31
0.0
  0
LINE
  5
2F6
330
77
100
AcDbEntity
  8
Visible (ISO)
100
AcDbLine
 10
73.41084232001422
 20
115.6211803468737
 30
0.0
 11
73.94285984137439
 21
115.9299231653589
 31
0.0
  0
LINE
  5
2F7
330
77
100
AcDbEntity
  8
Visible (ISO)
100
AcDbLine
 10
73.94285984137439
 20
115.9299231653589
 30
0.0
 11
73.6990336213891
 21
116.5498567180694
 31
0.0
  0
LINE
  5
2F8
330
77
100
AcDbEntity
  8
Visible (ISO)
100
AcDbLine
 10
73.6990336213891
 20
116.5498567180694
 30
0.0
 11
73.69903362138909
 21
138.4813741281049
 31
0.0
  0
LINE
  5
2F9
330
77
100
AcDbEntity
  8
Visible (ISO)
100
AcDbLine
 10
73.69903362138909
 20
138.4813741281049
 30
0.0
 11
74.12637566747493
 21
138.7293712005105
 31
0.0
  0
LINE
  5
2FA
330
77
100
AcDbEntity
  8
Visible (ISO)
100
AcDbLine
 10
74.12637566747493
 20
138.7293712005105
 30
0.0
 11
73.14670697179401
 21
141.220200509308
 31
0.0
  0
LINE
  5
2FB
330
77
100
AcDbEntity
  8
Visible (ISO)
100
AcDbLine
 10
73.14670697179401
 20
141.220200509308
 30
0.0
 11
74.8131129315408
 21
139.1279016810941
 31
0.0
  0
LINE
  5
2FC
330
77
100
AcDbEntity
  8
Visible (ISO)
100
AcDbLine
 10
74.8131129315408
 20
139.1279016810941
 30
0.0
 11
75.24045497762663
 21
139.3758987534997
 31
0.0
  0
LINE
  5
2FD
330
77
100
AcDbEntity
  8
Visible (ISO)
100
AcDbLine
 10
64.33953533857104
 20
110.9231280461786
 30
0.0
 11
64.33246427075918
 21
110.9190560890407
 31
0.0
  0
LINE
  5
2FE
330
77
100
AcDbEntity
  8
Visible (ISO)
100
AcDbLine
 10
64.33953533857104
 20
110.9231280461786
 30
0.0
 11
64.68945909986331
 21
110.9594684326763
 31
0.0
  0
LINE
  5
2FF
330
77
100
AcDbEntity
  8
Visible (ISO)
100
AcDbLine
 10
64.20651121374101
 20
110.9059755747146
 30
0.0
 11
64.21358228155288
 21
110.9100475318525
 31
0.0
  0
LINE
  5
300
330
77
100
AcDbEntity
  8
Visible (ISO)
100
AcDbLine
 10
62.54717632180611
 20
110.7369874446617
 30
0.0
 11
64.21358228155288
 21
110.9100475318525
 31
0.0
  0
LINE
  5
301
330
77
100
AcDbEntity
  8
Visible (ISO)
100
AcDbLine
 10
62.54010525399423
 20
110.7329154875237
 30
0.0
 11
62.54717632180611
 21
110.7369874446617
 31
0.0
  0
LINE
  5
302
330
77
100
AcDbEntity
  8
Visible (ISO)
100
AcDbLine
 10
63.59382089265701
 20
112.198421825171
 30
0.0
 11
63.60089196046887
 21
112.2024937823089
 31
0.0
  0
LINE
  5
303
330
77
100
AcDbEntity
  8
Visible (ISO)
100
AcDbLine
 10
63.80660975258783
 20
112.4886058196132
 30
0.0
 11
63.60089196046887
 21
112.2024937823089
 31
0.0
  0
LINE
  5
304
330
77
100
AcDbEntity
  8
Visible (ISO)
100
AcDbLine
 10
63.79953868477596
 20
112.4845338624753
 30
0.0
 11
63.80660975258783
 21
112.4886058196132
 31
0.0
  0
LINE
  5
305
330
77
100
AcDbEntity
  8
Visible (ISO)
100
AcDbLine
 10
63.59382089265701
 20
112.198421825171
 30
0.0
 11
63.79953868477596
 21
112.4845338624753
 31
0.0
  0
LINE
  5
306
330
77
100
AcDbEntity
  8
Visible (ISO)
100
AcDbLine
 10
63.52684501748701
 20
112.0995093904658
 30
0.0
 11
63.51977394967514
 21
112.0954374333279
 31
0.0
  0
LINE
  5
307
330
77
100
AcDbEntity
  8
Visible (ISO)
100
AcDbLine
 10
63.52684501748701
 20
112.0995093904658
 30
0.0
 11
62.54717632180611
 21
110.7369874446617
 31
0.0
  0
LINE
  5
308
330
77
100
AcDbEntity
  8
Visible (ISO)
100
AcDbLine
 10
64.11026935318187
 20
111.0889904758707
 30
0.0
 11
64.10319828537001
 21
111.0849185187328
 31
0.0
  0
LINE
  5
309
330
77
100
AcDbEntity
  8
Visible (ISO)
100
AcDbLine
 10
62.93818139700412
 20
110.963928838457
 30
0.0
 11
64.10319828537001
 21
111.0849185187328
 31
0.0
  0
LINE
  5
30A
330
77
100
AcDbEntity
  8
Visible (ISO)
100
AcDbLine
 10
63.62308687804614
 20
111.9164944893097
 30
0.0
 11
63.630157945858
 21
111.9205664464476
 31
0.0
  0
LINE
  5
30B
330
77
100
AcDbEntity
  8
Visible (ISO)
100
AcDbLine
 10
63.62308687804614
 20
111.9164944893097
 30
0.0
 11
62.93818139700412
 21
110.963928838457
 31
0.0
  0
LINE
  5
30C
330
77
100
AcDbEntity
  8
Visible (ISO)
100
AcDbLine
 10
63.630157945858
 20
111.9205664464476
 30
0.0
 11
64.11026935318187
 21
111.0889904758707
 31
0.0
  0
LINE
  5
30D
330
77
100
AcDbEntity
  8
Visible (ISO)
100
AcDbLine
 10
64.10319828537001
 20
111.0849185187328
 30
0.0
 11
63.62308687804614
 21
111.9164944893097
 31
0.0
  0
LINE
  5
30E
330
77
100
AcDbEntity
  8
Visible (ISO)
100
AcDbLine
 10
63.09950297140118
 20
112.8396862979943
 30
0.0
 11
63.52684501748701
 21
112.0995093904658
 31
0.0
  0
LINE
  5
30F
330
77
100
AcDbEntity
  8
Visible (ISO)
100
AcDbLine
 10
63.09243190358931
 20
112.8356143408564
 30
0.0
 11
63.09950297140118
 21
112.8396862979943
 31
0.0
  0
LINE
  5
310
330
77
100
AcDbEntity
  8
Visible (ISO)
100
AcDbLine
 10
63.23385325982664
 20
112.8219030194957
 30
0.0
 11
63.59382089265701
 21
112.198421825171
 31
0.0
  0
LINE
  5
311
330
77
100
AcDbEntity
  8
Visible (ISO)
100
AcDbLine
 10
74.05324383755725
 20
115.9939501491841
 30
0.0
 11
74.04617276974538
 21
115.9898781920462
 31
0.0
  0
LINE
  5
312
330
77
100
AcDbEntity
  8
Visible (ISO)
100
AcDbLine
 10
73.84045497762643
 20
116.5129202247354
 30
0.0
 11
74.04617276974538
 21
115.9898781920462
 31
0.0
  0
LINE
  5
313
330
77
100
AcDbEntity
  8
Visible (ISO)
100
AcDbLine
 10
73.94285984137439
 20
115.9299231653589
 30
0.0
 11
73.94993090918626
 21
115.9339951224969
 31
0.0
  0
LINE
  5
314
330
77
100
AcDbEntity
  8
Visible (ISO)
100
AcDbLine
 10
73.70610468920097
 20
116.5539286752073
 30
0.0
 11
73.94993090918626
 21
115.9339951224969
 31
0.0
  0
LINE
  5
315
330
77
100
AcDbEntity
  8
Visible (ISO)
100
AcDbLine
 10
73.6990336213891
 20
116.5498567180694
 30
0.0
 11
73.70610468920097
 21
116.5539286752073
 31
0.0
  0
LINE
  5
316
330
77
100
AcDbEntity
  8
Visible (ISO)
100
AcDbLine
 10
73.30752939164323
 20
115.5612253201864
 30
0.0
 11
73.31460045945508
 21
115.5652972773244
 31
0.0
  0
LINE
  5
317
330
77
100
AcDbEntity
  8
Visible (ISO)
100
AcDbLine
 10
72.9646766981628
 20
116.0046530486079
 30
0.0
 11
73.31460045945508
 21
115.5652972773244
 31
0.0
  0
LINE
  5
318
330
77
100
AcDbEntity
  8
Visible (ISO)
100
AcDbLine
 10
72.95760563035094
 20
116.00058109147
 30
0.0
 11
72.9646766981628
 21
116.0046530486079
 31
0.0
  0
LINE
  5
319
330
77
100
AcDbEntity
  8
Visible (ISO)
100
AcDbLine
 10
73.30752939164323
 20
115.5612253201864
 30
0.0
 11
72.95760563035094
 21
116.00058109147
 31
0.0
  0
LINE
  5
31A
330
77
100
AcDbEntity
  8
Visible (ISO)
100
AcDbLine
 10
73.44055351647326
 20
115.4071536796808
 30
0.0
 11
73.43348244866138
 21
115.4030817225428
 31
0.0
  0
LINE
  5
31B
330
77
100
AcDbEntity
  8
Visible (ISO)
100
AcDbLine
 10
73.44055351647326
 20
115.4071536796808
 30
0.0
 11
75.08982565983519
 21
113.3363676549558
 31
0.0
  0
LINE
  5
31C
330
77
100
AcDbEntity
  8
Visible (ISO)
100
AcDbLine
 10
73.41791338782607
 20
115.6252523040116
 30
0.0
 11
73.41084232001422
 21
115.6211803468737
 31
0.0
  0
LINE
  5
31D
330
77
100
AcDbEntity
  8
Visible (ISO)
100
AcDbLine
 10
73.84045497762642
 20
138.3322071639487
 30
0.0
 11
73.84045497762643
 21
116.5129202247354
 31
0.0
  0
LINE
  5
31E
330
77
100
AcDbEntity
  8
Visible (ISO)
100
AcDbLine
 10
74.02397785216812
 20
115.7457291335771
 30
0.0
 11
74.01690678435627
 21
115.7416571764392
 31
0.0
  0
LINE
  5
31F
330
77
100
AcDbEntity
  8
Visible (ISO)
100
AcDbLine
 10
74.70181226539827
 20
114.0002698549327
 30
0.0
 11
74.01690678435627
 21
115.7416571764392
 31
0.0
  0
LINE
  5
320
330
77
100
AcDbEntity
  8
Visible (ISO)
100
AcDbLine
 10
74.70181226539827
 20
114.0002698549327
 30
0.0
 11
74.70888333321013
 21
114.0043418120706
 31
0.0
  0
LINE
  5
321
330
77
100
AcDbEntity
  8
Visible (ISO)
100
AcDbLine
 10
74.02397785216812
 20
115.7457291335771
 30
0.0
 11
74.70888333321013
 21
114.0043418120706
 31
0.0
  0
LINE
  5
322
330
77
100
AcDbEntity
  8
Visible (ISO)
100
AcDbLine
 10
73.53679537703238
 20
115.4630367492301
 30
0.0
 11
74.70181226539827
 21
114.0002698549327
 31
0.0
  0
LINE
  5
323
330
77
100
AcDbEntity
  8
Visible (ISO)
100
AcDbLine
 10
74.01690678435627
 20
115.7416571764392
 30
0.0
 11
73.53679537703238
 21
115.4630367492301
 31
0.0
  0
LINE
  5
324
330
77
100
AcDbEntity
  8
Visible (ISO)
100
AcDbLine
 10
72.94756175881285
 20
115.3523272725443
 30
0.0
 11
73.30752939164323
 21
115.5612253201864
 31
0.0
  0
LINE
  5
325
330
77
100
AcDbEntity
  8
Visible (ISO)
100
AcDbLine
 10
72.94756175881285
 20
115.3523272725443
 30
0.0
 11
72.95463282662471
 21
115.3563992296823
 31
0.0
  0
LINE
  5
326
330
77
100
AcDbEntity
  8
Visible (ISO)
100
AcDbLine
 10
73.31460045945508
 20
115.5652972773244
 30
0.0
 11
72.95463282662471
 21
115.3563992296823
 31
0.0
  0
LINE
  5
327
330
77
100
AcDbEntity
  8
Visible (ISO)
100
AcDbLine
 10
73.94993090918626
 20
115.9339951224969
 30
0.0
 11
73.41791338782607
 21
115.6252523040116
 31
0.0
  0
LINE
  5
328
330
77
100
AcDbEntity
  8
Visible (ISO)
100
AcDbLine
 10
74.20749367826866
 20
138.5451771687287
 30
0.0
 11
74.20042261045679
 21
138.5411052115907
 31
0.0
  0
LINE
  5
329
330
77
100
AcDbEntity
  8
Visible (ISO)
100
AcDbLine
 10
74.40614040257575
 20
138.0180631789015
 30
0.0
 11
74.20042261045679
 21
138.5411052115907
 31
0.0
  0
LINE
  5
32A
330
77
100
AcDbEntity
  8
Visible (ISO)
100
AcDbLine
 10
74.40614040257575
 20
138.0180631789015
 30
0.0
 11
74.41321147038761
 21
138.0221351360394
 31
0.0
  0
LINE
  5
32B
330
77
100
AcDbEntity
  8
Visible (ISO)
100
AcDbLine
 10
74.20749367826866
 20
138.5451771687287
 30
0.0
 11
74.41321147038761
 21
138.0221351360394
 31
0.0
  0
LINE
  5
32C
330
77
100
AcDbEntity
  8
Visible (ISO)
100
AcDbLine
 10
74.12637566747493
 20
138.7293712005105
 30
0.0
 11
74.1334467352868
 21
138.7334431576485
 31
0.0
  0
LINE
  5
32D
330
77
100
AcDbEntity
  8
Visible (ISO)
100
AcDbLine
 10
73.16384078817887
 20
141.1986877058191
 30
0.0
 11
74.1334467352868
 21
138.7334431576485
 31
0.0
  0
LINE
  5
32E
330
77
100
AcDbEntity
  8
Visible (ISO)
100
AcDbLine
 10
74.82018399935267
 20
139.131973638232
 30
0.0
 11
74.8131129315408
 21
139.1279016810941
 31
0.0
  0
LINE
  5
32F
330
77
100
AcDbEntity
  8
Visible (ISO)
100
AcDbLine
 10
74.84282412799983
 20
138.9138750139012
 30
0.0
 11
74.83575306018797
 21
138.9098030567633
 31
0.0
  0
LINE
  5
330
330
77
100
AcDbEntity
  8
Visible (ISO)
100
AcDbLine
 10
75.25049884916473
 20
138.3890583227402
 30
0.0
 11
75.25756991697659
 21
138.3931302798782
 31
0.0
  0
LINE
  5
331
330
77
100
AcDbEntity
  8
Visible (ISO)
100
AcDbLine
 10
74.84282412799983
 20
138.9138750139012
 30
0.0
 11
75.25756991697659
 21
138.3931302798782
 31
0.0
  0
LINE
  5
332
330
77
100
AcDbEntity
  8
Visible (ISO)
100
AcDbLine
 10
74.41321147038761
 20
138.0221351360394
 30
0.0
 11
74.41321147038762
 21
116.2028481968262
 31
0.0
  0
LINE
  5
333
330
77
100
AcDbEntity
  8
Visible (ISO)
100
AcDbLine
 10
74.40614040257576
 20
116.1987762396883
 30
0.0
 11
74.40614040257575
 21
138.0180631789015
 31
0.0
  0
LINE
  5
334
330
77
100
AcDbEntity
  8
Visible (ISO)
100
AcDbLine
 10
74.40614040257576
 20
116.1987762396883
 30
0.0
 11
74.41321147038762
 21
116.2028481968262
 31
0.0
  0
LINE
  5
335
330
77
100
AcDbEntity
  8
Visible (ISO)
100
AcDbLine
 10
74.23675966365779
 20
138.7933981843357
 30
0.0
 11
74.22968859584592
 21
138.7893262271977
 31
0.0
  0
LINE
  5
336
330
77
100
AcDbEntity
  8
Visible (ISO)
100
AcDbLine
 10
73.54478311480391
 20
140.5307135487042
 30
0.0
 11
74.22968859584592
 21
138.7893262271977
 31
0.0
  0
LINE
  5
337
330
77
100
AcDbEntity
  8
Visible (ISO)
100
AcDbLine
 10
73.54478311480391
 20
140.5307135487042
 30
0.0
 11
73.55185418261577
 21
140.5347855058422
 31
0.0
  0
LINE
  5
338
330
77
100
AcDbEntity
  8
Visible (ISO)
100
AcDbLine
 10
74.70980000316981
 20
139.0679466544069
 30
0.0
 11
74.71687107098166
 21
139.0720186115448
 31
0.0
  0
LINE
  5
339
330
77
100
AcDbEntity
  8
Visible (ISO)
100
AcDbLine
 10
73.55185418261577
 20
140.5347855058422
 30
0.0
 11
74.71687107098166
 21
139.0720186115448
 31
0.0
  0
LINE
  5
33A
330
77
100
AcDbEntity
  8
Visible (ISO)
100
AcDbLine
 10
74.70980000316981
 20
139.0679466544069
 30
0.0
 11
73.54478311480391
 21
140.5307135487042
 31
0.0
  0
LINE
  5
33B
330
77
100
AcDbEntity
  8
Visible (ISO)
100
AcDbLine
 10
75.25756991697659
 20
138.3931302798782
 30
0.0
 11
81.48844897308917
 21
134.8050056679925
 31
0.0
  0
LINE
  5
33C
330
77
100
AcDbEntity
  8
Visible (ISO)
100
AcDbLine
 10
74.71687107098166
 20
139.0720186115448
 30
0.0
 11
74.23675966365779
 21
138.7933981843357
 31
0.0
  0
LINE
  5
33D
330
77
100
AcDbEntity
  8
Visible (ISO)
100
AcDbLine
 10
74.22968859584592
 20
138.7893262271977
 30
0.0
 11
74.70980000316981
 21
139.0679466544069
 31
0.0
  0
LINE
  5
33E
330
77
100
AcDbEntity
  8
Visible (ISO)
100
AcDbLine
 10
75.24048227164874
 20
139.3758830359177
 30
0.0
 11
74.82018399935267
 21
139.131973638232
 31
0.0
  0
LINE
  5
33F
330
77
100
AcDbEntity
  8
Visible (ISO)
100
AcDbLine
 10
73.69903362138909
 20
138.4813741281049
 30
0.0
 11
73.70610468920095
 21
138.4854460852428
 31
0.0
  0
LINE
  5
340
330
77
100
AcDbEntity
  8
Visible (ISO)
100
AcDbLine
 10
74.1334467352868
 20
138.7334431576485
 30
0.0
 11
73.70610468920095
 21
138.4854460852428
 31
0.0
  0
LINE
  5
341
330
77
100
AcDbEntity
  8
Visible (ISO)
100
AcDbLine
 10
73.70610468920095
 20
138.4854460852428
 30
0.0
 11
73.70610468920097
 21
116.5539286752073
 31
0.0
  0
LINE
  5
342
330
77
100
AcDbEntity
  8
Visible (ISO)
100
AcDbLine
 10
74.20042261045679
 20
138.5411052115907
 30
0.0
 11
73.84045497762642
 21
138.3322071639487
 31
0.0
  0
LINE
  5
343
330
77
100
AcDbEntity
  8
Visible (ISO)
100
AcDbLine
 10
63.60089196046889
 20
120.1266991303366
 30
0.0
 11
63.59382089265702
 21
120.1226271731987
 31
0.0
  0
LINE
  5
344
330
77
100
AcDbEntity
  8
Visible (ISO)
100
AcDbLine
 10
63.79953868477596
 20
119.5995851405094
 30
0.0
 11
63.59382089265702
 21
120.1226271731987
 31
0.0
  0
LINE
  5
345
330
77
100
AcDbEntity
  8
Visible (ISO)
100
AcDbLine
 10
63.79953868477596
 20
119.5995851405094
 30
0.0
 11
63.80660975258784
 21
119.6036570976473
 31
0.0
  0
LINE
  5
346
330
77
100
AcDbEntity
  8
Visible (ISO)
100
AcDbLine
 10
63.60089196046889
 20
120.1266991303366
 30
0.0
 11
63.80660975258784
 21
119.6036570976473
 31
0.0
  0
LINE
  5
347
330
77
100
AcDbEntity
  8
Visible (ISO)
100
AcDbLine
 10
63.51977394967516
 20
120.3108931621184
 30
0.0
 11
63.52684501748702
 21
120.3149651192563
 31
0.0
  0
LINE
  5
348
330
77
100
AcDbEntity
  8
Visible (ISO)
100
AcDbLine
 10
62.5572390703791
 20
122.780209667427
 30
0.0
 11
63.52684501748702
 21
120.3149651192563
 31
0.0
  0
LINE
  5
349
330
77
100
AcDbEntity
  8
Visible (ISO)
100
AcDbLine
 10
64.33246427075918
 20
120.5512800450584
 30
0.0
 11
64.68238803205148
 21
120.1119242737749
 31
0.0
  0
LINE
  5
34A
330
77
100
AcDbEntity
  8
Visible (ISO)
100
AcDbLine
 10
64.21358228155288
 20
120.7134955998399
 30
0.0
 11
64.20651121374103
 21
120.709423642702
 31
0.0
  0
LINE
  5
34B
330
77
100
AcDbEntity
  8
Visible (ISO)
100
AcDbLine
 10
64.23622241020005
 20
120.4953969755091
 30
0.0
 11
64.22915134238819
 21
120.4913250183712
 31
0.0
  0
LINE
  5
34C
330
77
100
AcDbEntity
  8
Visible (ISO)
100
AcDbLine
 10
64.64389713136495
 20
119.9705802843481
 30
0.0
 11
64.65096819917682
 21
119.9746522414861
 31
0.0
  0
LINE
  5
34D
330
77
100
AcDbEntity
  8
Visible (ISO)
100
AcDbLine
 10
64.23622241020005
 20
120.4953969755091
 30
0.0
 11
64.65096819917682
 21
119.9746522414861
 31
0.0
  0
LINE
  5
34E
330
77
100
AcDbEntity
  8
Visible (ISO)
100
AcDbLine
 10
63.80660975258784
 20
119.6036570976473
 30
0.0
 11
63.80660975258783
 21
112.4886058196132
 31
0.0
  0
LINE
  5
34F
330
77
100
AcDbEntity
  8
Visible (ISO)
100
AcDbLine
 10
63.79953868477596
 20
112.4845338624753
 30
0.0
 11
63.79953868477596
 21
119.5995851405094
 31
0.0
  0
LINE
  5
350
330
77
100
AcDbEntity
  8
Visible (ISO)
100
AcDbLine
 10
63.63015794585802
 20
120.3749201459436
 30
0.0
 11
63.62308687804615
 21
120.3708481888057
 31
0.0
  0
LINE
  5
351
330
77
100
AcDbEntity
  8
Visible (ISO)
100
AcDbLine
 10
62.93818139700413
 20
122.1122355103121
 30
0.0
 11
63.62308687804615
 21
120.3708481888057
 31
0.0
  0
LINE
  5
352
330
77
100
AcDbEntity
  8
Visible (ISO)
100
AcDbLine
 10
62.93818139700413
 20
122.1122355103121
 30
0.0
 11
62.94525246481599
 21
122.1163074674501
 31
0.0
  0
LINE
  5
353
330
77
100
AcDbEntity
  8
Visible (ISO)
100
AcDbLine
 10
64.10319828537002
 20
120.6494686160147
 30
0.0
 11
64.11026935318189
 21
120.6535405731527
 31
0.0
  0
LINE
  5
354
330
77
100
AcDbEntity
  8
Visible (ISO)
100
AcDbLine
 10
62.94525246481599
 20
122.1163074674501
 30
0.0
 11
64.11026935318189
 21
120.6535405731527
 31
0.0
  0
LINE
  5
355
330
77
100
AcDbEntity
  8
Visible (ISO)
100
AcDbLine
 10
64.10319828537002
 20
120.6494686160147
 30
0.0
 11
62.93818139700413
 21
122.1122355103121
 31
0.0
  0
LINE
  5
356
330
77
100
AcDbEntity
  8
Visible (ISO)
100
AcDbLine
 10
64.65096819917682
 20
119.9746522414861
 30
0.0
 11
73.01318417636531
 21
115.1591723248572
 31
0.0
  0
LINE
  5
357
330
77
100
AcDbEntity
  8
Visible (ISO)
100
AcDbLine
 10
64.11026935318189
 20
120.6535405731527
 30
0.0
 11
63.63015794585802
 21
120.3749201459436
 31
0.0
  0
LINE
  5
358
330
77
100
AcDbEntity
  8
Visible (ISO)
100
AcDbLine
 10
63.62308687804615
 20
120.3708481888057
 30
0.0
 11
64.10319828537002
 21
120.6494686160147
 31
0.0
  0
LINE
  5
359
330
77
100
AcDbEntity
  8
Visible (ISO)
100
AcDbLine
 10
64.63388055384896
 20
120.9574049975256
 30
0.0
 11
64.21358228155288
 21
120.7134955998399
 31
0.0
  0
LINE
  5
35A
330
77
100
AcDbEntity
  8
Visible (ISO)
100
AcDbLine
 10
64.69243190358955
 20
120.7601780927005
 30
0.0
 11
64.33246427075918
 21
120.5512800450584
 31
0.0
  0
LINE
  5
35B
330
77
100
AcDbEntity
  8
Visible (ISO)
100
AcDbLine
 10
64.69243190358955
 20
120.7601780927005
 30
0.0
 11
64.69950297140143
 21
120.7642500498384
 31
0.0
  0
LINE
  5
35C
330
77
100
AcDbEntity
  8
Visible (ISO)
100
AcDbLine
 10
63.09243190358931
 20
120.0628960897128
 30
0.0
 11
63.09950297140118
 21
120.0669680468507
 31
0.0
  0
LINE
  5
35D
330
77
100
AcDbEntity
  8
Visible (ISO)
100
AcDbLine
 10
63.52684501748702
 20
120.3149651192563
 30
0.0
 11
63.09950297140118
 21
120.0669680468507
 31
0.0
  0
LINE
  5
35E
330
77
100
AcDbEntity
  8
Visible (ISO)
100
AcDbLine
 10
63.09950297140118
 20
120.0669680468507
 30
0.0
 11
63.09950297140118
 21
112.8396862979943
 31
0.0
  0
LINE
  5
35F
330
77
100
AcDbEntity
  8
Visible (ISO)
100
AcDbLine
 10
63.59382089265702
 20
120.1226271731987
 30
0.0
 11
63.23385325982664
 21
119.9137291255566
 31
0.0
  0
LINE
  5
360
330
77
100
AcDbEntity
  8
Visible (ISO)
100
AcDbLine
 10
64.69950297140143
 20
120.7642500498384
 30
0.0
 11
72.9646766981628
 21
116.0046530486079
 31
0.0
  0
LINE
  5
361
330
77
100
AcDbEntity
  8
Visible (ISO)
100
AcDbLine
 10
72.95760563035094
 20
116.00058109147
 30
0.0
 11
64.69243190358955
 21
120.7601780927005
 31
0.0
  0
LINE
  5
362
330
77
100
AcDbEntity
  8
Visible (ISO)
100
AcDbLine
 10
64.21358228155288
 20
110.9100475318525
 30
0.0
 11
64.64092432763871
 21
110.169870624324
 31
0.0
  0
LINE
  5
363
330
77
100
AcDbEntity
  8
Visible (ISO)
100
AcDbLine
 10
63.23385325982664
 20
119.9137291255566
 30
0.0
 11
63.23385325982664
 21
112.8219030194957
 31
0.0
  0
LINE
  5
364
330
77
100
AcDbEntity
  8
Visible (ISO)
100
AcDbLine
 10
74.41321147038762
 20
116.2028481968262
 30
0.0
 11
74.05324383755725
 21
115.9939501491841
 31
0.0
  0
LINE
  5
365
330
77
100
AcDbEntity
  8
Visible (ISO)
100
AcDbLine
 10
74.04617276974538
 20
115.9898781920462
 30
0.0
 11
74.40614040257576
 21
116.1987762396883
 31
0.0
  0
LINE
  5
366
330
77
100
AcDbEntity
  8
Visible (ISO)
100
AcDbLine
 10
64.68238803205148
 20
120.1119242737749
 30
0.0
 11
72.94756175881285
 21
115.3523272725443
 31
0.0
  0
ELLIPSE
  5
367
330
77
100
AcDbEntity
  8
Visible (ISO)
100
AcDbEllipse
 10
63.65811732853831
 20
123.3131797969783
 30
0.0
 11
-0.0998064423168811
 21
0.1733166872290351
 31
0.0
210
0.0
220
0.0
230
1.0
 40
0.5780931159158108
 41
5.499720852205022
 42
6.283185307179596
  0
ELLIPSE
  5
368
330
77
100
AcDbEntity
  8
Visible (ISO)
100
AcDbEllipse
 10
74.26471904633809
 20
141.7316578353704
 30
0.0
 11
-0.0998064423168611
 21
0.1733166872290005
 31
0.0
210
0.0
220
0.0
230
1.0
 40
0.5780931159158105
 41
5.499720852204896
 42
6.283185307179683
  0
ELLIPSE
  5
369
330
77
100
AcDbEntity
  8
Visible (ISO)
100
AcDbEllipse
 10
73.20405887455844
 20
141.1208642646818
 30
0.0
 11
-0.0998064423168805
 21
0.1733166872290341
 31
0.0
210
0.0
220
0.0
230
1.0
 40
0.5780931159158107
 41
5.499720852205085
 42
7.070517178999965
  0
ELLIPSE
  5
36A
330
77
100
AcDbEntity
  8
Visible (ISO)
100
AcDbEllipse
 10
72.35553073713446
 20
118.0641419257674
 30
0.0
 11
0.499032211584404
 21
-0.8665834361451736
 31
0.0
210
0.0
220
0.0
230
1.0
 40
0.5780931159158106
 41
5.499720852205022
 42
7.070517178999915
  0
ELLIPSE
  5
36B
330
77
100
AcDbEntity
  8
Visible (ISO)
100
AcDbEllipse
 10
62.59745715675865
 20
122.7023862262897
 30
0.0
 11
-0.0998064423168788
 21
0.1733166872290313
 31
0.0
210
0.0
220
0.0
230
1.0
 40
0.5780931159158106
 41
5.499720852205022
 42
7.070517178999965
  0
ELLIPSE
  5
36C
330
77
100
AcDbEntity
  8
Visible (ISO)
100
AcDbEllipse
 10
62.59745715675865
 20
110.7661982035887
 30
0.0
 11
-0.0998064423168698
 21
0.1733166872290395
 31
0.0
210
0.0
220
0.0
230
1.0
 40
0.5780931159158104
 41
0.7873318718205518
 42
2.358128198615464
  0
LINE
  5
36D
330
77
100
AcDbEntity
  8
Visible Narrow (ISO)
100
AcDbLine
 10
73.06263223026038
 20
117.6537874695257
 30
0.0
 11
72.35553073713446
 21
117.2465948009248
 31
0.0
  0
LINE
  5
36E
330
77
100
AcDbEntity
  8
Visible Narrow (ISO)
100
AcDbLine
 10
62.59745715675865
 20
122.8658956512582
 30
0.0
 11
63.65811732853831
 21
123.4766892219468
 31
0.0
  0
LINE
  5
36F
330
77
100
AcDbEntity
  8
Visible Narrow (ISO)
100
AcDbLine
 10
73.20405887455845
 20
141.2843736896503
 30
0.0
 11
74.26471904633811
 21
141.8951672603389
 31
0.0
  0
LINE
  5
370
330
77
100
AcDbEntity
  8
Visible (ISO)
100
AcDbLine
 10
63.55831088622145
 20
123.4864964842073
 30
0.0
 11
62.49765071444177
 21
122.8757029135188
 31
0.0
  0
LINE
  5
371
330
77
100
AcDbEntity
  8
Visible (ISO)
100
AcDbLine
 10
73.10425243224156
 20
141.2941809519109
 30
0.0
 11
74.16491260402122
 21
141.9049745225994
 31
0.0
  0
DIMENSION
  5
372
330
77
100
AcDbEntity
  8
Dimension (ISO)
100
AcDbDimension
  2
*D6
 10
85.8371578895263
 20
42.7554101354731
 30
0.0
 11
79.97353532404613
 21
42.7554101354731
 31
0.0
 70
   160
  1
<>
 42
1.5
  3
Default (ISO)
100
AcDbAlignedDimension
 13
84.3371578895263
 23
46.36293347059885
 33
0.0
 14
85.8371578895263
 24
46.36293347059885
 34
0.0
 50
180.0
100
AcDbRotatedDimension
1001
ACAD
1000
DSTYLE
1002
{
1070
   172
1070
     1
1070
   289
1070
     1
1070
   271
1070
     1
1070
   272
1070
     2
1070
    48
1040
0.0
1070
    47
1040
0.0
1002
}
  0
DIMENSION
  5
471
330
77
100
AcDbEntity
  8
Dimension (ISO)
100
AcDbDimension
  2
*D7
 10
76.83199490367456
 20
91.16293347059883
 30
0.0
 11
76.83199490367456
 21
68.66793347059884
 31
0.0
 70
   160
  1
<>
 42
44.99999999999997
  3
Default (ISO)
100
AcDbAlignedDimension
 13
59.83199490367455
 23
46.16293347059886
 33
0.0
 14
44.83199490367455
 24
91.16293347059883
 34
0.0
 50
90.0
100
AcDbRotatedDimension
1001
ACAD
1000
DSTYLE
1002
{
1070
   172
1070
     0
1070
   289
1070
     1
1070
   271
1070
     0
1070
   272
1070
     0
1070
    48
1040
0.0
1070
    47
1040
0.0
1002
}
  0
DIMENSION
  5
547
330
77
100
AcDbEntity
  8
Dimension (ISO)
100
AcDbDimension
  2
*D8
 10
64.83199490367458
 20
53.66293347059884
 30
0.0
 11
64.83199490367457
 21
49.91793347059884
 31
0.0
 70
   160
  1
<>
 42
7.499999999999985
  3
Default (ISO)
100
AcDbAlignedDimension
 13
59.83199490367455
 23
46.16293347059886
 33
0.0
 14
52.53199490367456
 24
53.66293347059884
 34
0.0
 50
90.0
100
AcDbRotatedDimension
1001
ACAD
1000
DSTYLE
1002
{
1070
   172
1070
     0
1070
   289
1070
     1
1070
   271
1070
     1
1070
   272
1070
     2
1070
    48
1040
0.0
1070
    47
1040
0.0
1002
}
  0
DIMENSION
  5
629
330
77
100
AcDbEntity
  8
Dimension (ISO)
100
AcDbDimension
  2
*D9
 10
67.83199490367458
 20
46.16293347059886
 30
0.0
 11
67.83199490367457
 21
53.66793347059884
 31
0.0
 70
   160
  1
<>
 42
14.99999999999998
  3
Default (ISO)
100
AcDbAlignedDimension
 13
59.83199490367455
 23
61.16293347059884
 33
0.0
 14
59.83199490367455
 24
46.16293347059886
 34
0.0
 50
90.0
100
AcDbRotatedDimension
1001
ACAD
1000
DSTYLE
1002
{
1070
   172
1070
     0
1070
   289
1070
     1
1070
   271
1070
     0
1070
   272
1070
     0
1070
    48
1040
0.0
1070
    47
1040
0.0
1002
}
  0
DIMENSION
  5
70B
330
77
100
AcDbEntity
  8
Dimension (ISO)
100
AcDbDimension
  2
*D10
 10
70.83199490367459
 20
68.66293347059884
 30
0.0
 11
70.83199490367457
 21
57.41793347059884
 31
0.0
 70
   160
  1
<>
 42
22.49999999999999
  3
Default (ISO)
100
AcDbAlignedDimension
 13
59.83199490367455
 23
46.16293347059886
 33
0.0
 14
37.53199490367456
 24
68.66293347059884
 34
0.0
 50
90.0
100
AcDbRotatedDimension
1001
ACAD
1000
DSTYLE
1002
{
1070
   172
1070
     0
1070
   289
1070
     1
1070
   271
1070
     0
1070
   272
1070
     0
1070
    48
1040
0.0
1070
    47
1040
0.0
1002
}
  0
DIMENSION
  5
7E1
330
77
100
AcDbEntity
  8
Dimension (ISO)
100
AcDbDimension
  2
*D11
 10
73.83199490367458
 20
83.66293347059883
 30
0.0
 11
73.83199490367457
 21
64.91793347059884
 31
0.0
 70
   160
  1
<>
 42
37.49999999999997
  3
Default (ISO)
100
AcDbAlignedDimension
 13
59.83199490367455
 23
46.16293347059886
 33
0.0
 14
37.53199490367456
 24
83.66293347059883
 34
0.0
 50
90.0
100
AcDbRotatedDimension
1001
ACAD
1000
DSTYLE
1002
{
1070
   172
1070
     0
1070
   289
1070
     1
1070
   271
1070
     0
1070
   272
1070
     0
1070
    48
1040
0.0
1070
    47
1040
0.0
1002
}
  0
DIMENSION
  5
8B7
330
77
100
AcDbEntity
  8
Dimension (ISO)
100
AcDbDimension
  2
*D12
 10
52.53199490367456
 20
42.14308374171126
 30
0.0
 11
56.28199490367456
 21
42.14308374171126
 31
0.0
 70
   160
  1
<>
 42
7.5
  3
Default (ISO)
100
AcDbAlignedDimension
 13
60.03199490367456
 23
46.36293347059885
 33
0.0
 14
52.53199490367456
 24
53.66293347059884
 34
0.0
100
AcDbRotatedDimension
1001
ACAD
1000
DSTYLE
1002
{
1070
   172
1070
     0
1070
   289
1070
     1
1070
   271
1070
     1
1070
   272
1070
     2
1070
    48
1040
0.0
1070
    47
1040
0.0
1002
}
  0
DIMENSION
  5
999
330
77
100
AcDbEntity
  8
Dimension (ISO)
100
AcDbDimension
  2
*D13
 10
22.53199490367455
 20
32.65064591952286
 30
0.0
 11
41.28199490367456
 21
32.65064591952286
 31
0.0
 70
   160
  1
<>
 42
37.5
  3
Default (ISO)
100
AcDbAlignedDimension
 13
60.03199490367456
 23
46.36293347059885
 33
0.0
 14
22.53199490367455
 24
53.66293347059884
 34
0.0
 50
180.0
100
AcDbRotatedDimension
1001
ACAD
1000
DSTYLE
1002
{
1070
   172
1070
     0
1070
   289
1070
     1
1070
   271
1070
     1
1070
   272
1070
     2
1070
    48
1040
0.0
1070
    47
1040
0.0
1002
}
  0
DIMENSION
  5
A6F
330
77
100
AcDbEntity
  8
Dimension (ISO)
100
AcDbDimension
  2
*D14
 10
45.03199490367456
 20
94.96293347059882
 30
0.0
 11
52.53199490367456
 21
94.96293347059882
 31
0.0
 70
   160
  1
<>
 42
15.0
  3
Default (ISO)
100
AcDbAlignedDimension
 13
60.03199490367456
 23
60.96293347059885
 33
0.0
 14
45.03199490367456
 24
90.96293347059884
 34
0.0
100
AcDbRotatedDimension
1001
ACAD
1000
DSTYLE
1002
{
1070
   172
1070
     0
1070
   289
1070
     1
1070
   271
1070
     0
1070
   272
1070
     0
1070
    48
1040
0.0
1070
    47
1040
0.0
1002
}
  0
DIMENSION
  5
B51
330
77
100
AcDbEntity
  8
Dimension (ISO)
100
AcDbDimension
  2
*D15
 10
30.03199490367455
 20
94.96293347059882
 30
0.0
 11
22.53199490367455
 21
94.96293347059882
 31
0.0
 70
   160
  1
<>
 42
14.99999999999999
  3
Default (ISO)
100
AcDbAlignedDimension
 13
15.03199490367456
 23
60.96293347059884
 33
0.0
 14
30.03199490367455
 24
90.96293347059884
 34
0.0
100
AcDbRotatedDimension
1001
ACAD
1000
DSTYLE
1002
{
1070
   172
1070
     0
1070
   289
1070
     1
1070
   271
1070
     0
1070
   272
1070
     0
1070
    48
1040
0.0
1070
    47
1040
0.0
1002
}
  0
DIMENSION
  5
C33
330
77
100
AcDbEntity
  8
Dimension (ISO)
100
AcDbDimension
  2
*D16
 10
30.03199490367455
 20
94.96293347059882
 30
0.0
 11
37.53199490367456
 21
94.96293347059882
 31
0.0
 70
   160
  1
<>
 42
15.00000000000001
  3
Default (ISO)
100
AcDbAlignedDimension
 13
45.03199490367456
 23
90.96293347059884
 33
0.0
 14
30.03199490367455
 24
90.96293347059884
 34
0.0
100
AcDbRotatedDimension
1001
ACAD
1000
DSTYLE
1002
{
1070
   172
1070
     0
1070
   289
1070
     1
1070
   271
1070
     0
1070
   272
1070
     0
1070
    48
1040
0.0
1070
    47
1040
0.0
1002
}
  0
DIMENSION
  5
D15
330
77
100
AcDbEntity
  8
Dimension (ISO)
100
AcDbDimension
  2
*D17
 10
37.53199490367456
 20
36.66293347059885
 30
0.0
 11
48.78199490367456
 21
36.66293347059885
 31
0.0
 70
   160
  1
<>
 42
22.5
  3
Default (ISO)
100
AcDbAlignedDimension
 13
60.03199490367456
 23
46.36293347059885
 33
0.0
 14
37.53199490367456
 24
53.66293347059884
 34
0.0
100
AcDbRotatedDimension
1001
ACAD
1000
DSTYLE
1002
{
1070
   172
1070
     0
1070
   289
1070
     1
1070
   271
1070
     1
1070
   272
1070
     2
1070
    48
1040
0.0
1070
    47
1040
0.0
1002
}
  0
DIMENSION
  5
DEB
330
77
100
AcDbEntity
  8
Dimension (ISO)
100
AcDbDimension
  2
*D18
 10
60.03199490367456
 20
28.590076986305
 30
0.0
 11
37.53199490367456
 21
28.590076986305
 31
0.0
 70
   160
  1
<>
 42
45.0
  3
Default (ISO)
100
AcDbAlignedDimension
 13
15.03199490367456
 23
46.36293347059884
 33
0.0
 14
60.03199490367456
 24
46.36293347059885
 34
0.0
100
AcDbRotatedDimension
1001
ACAD
1000
DSTYLE
1002
{
1070
   172
1070
     0
1070
   289
1070
     1
1070
   271
1070
     0
1070
   272
1070
     2
1070
    48
1040
0.0
1070
    47
1040
0.0
1002
}
  0
LINE
  5
EC1
330
77
100
AcDbEntity
  8
Center Mark (ISO)
  6
CHAIN
 48
12.22318172454834
100
AcDbLine
 10
40.28199490367455
 20
83.66293347059883
 30
0.0
 11
34.78199490367456
 21
83.66293347059883
 31
0.0
  0
LINE
  5
EC2
330
77
100
AcDbEntity
  8
Center Mark (ISO)
  6
CHAIN
 48
12.22318172454834
100
AcDbLine
 10
37.53199490367456
 20
86.41293347059884
 30
0.0
 11
37.53199490367456
 21
80.91293347059883
 31
0.0
  0
LINE
  5
EC3
330
77
100
AcDbEntity
  8
Center Mark (ISO)
  6
CHAIN
 48
12.22318172454834
100
AcDbLine
 10
40.28199490367455
 20
68.66293347059884
 30
0.0
 11
34.78199490367456
 21
68.66293347059884
 31
0.0
  0
LINE
  5
EC4
330
77
100
AcDbEntity
  8
Center Mark (ISO)
  6
CHAIN
 48
12.22318172454834
100
AcDbLine
 10
37.53199490367456
 20
71.41293347059884
 30
0.0
 11
37.53199490367456
 21
65.91293347059885
 31
0.0
  0
LINE
  5
EC5
330
77
100
AcDbEntity
  8
Center Mark (ISO)
  6
CHAIN
 48
12.22318172454834
100
AcDbLine
 10
40.28199490367455
 20
53.66293347059884
 30
0.0
 11
34.78199490367456
 21
53.66293347059884
 31
0.0
  0
LINE
  5
EC6
330
77
100
AcDbEntity
  8
Center Mark (ISO)
  6
CHAIN
 48
12.22318172454834
100
AcDbLine
 10
37.53199490367456
 20
56.41293347059885
 30
0.0
 11
37.53199490367456
 21
50.91293347059885
 31
0.0
  0
LINE
  5
EC7
330
77
100
AcDbEntity
  8
Center Mark (ISO)
  6
CHAIN
 48
12.22318172454834
100
AcDbLine
 10
55.28199490367455
 20
53.66293347059884
 30
0.0
 11
49.78199490367455
 21
53.66293347059884
 31
0.0
  0
LINE
  5
EC8
330
77
100
AcDbEntity
  8
Center Mark (ISO)
  6
CHAIN
 48
12.22318172454834
100
AcDbLine
 10
52.53199490367456
 20
56.41293347059885
 30
0.0
 11
52.53199490367456
 21
50.91293347059885
 31
0.0
  0
LINE
  5
EC9
330
77
100
AcDbEntity
  8
Center Mark (ISO)
  6
CHAIN
 48
12.22318172454834
100
AcDbLine
 10
25.28199490367456
 20
53.66293347059884
 30
0.0
 11
19.78199490367455
 21
53.66293347059884
 31
0.0
  0
LINE
  5
ECA
330
77
100
AcDbEntity
  8
Center Mark (ISO)
  6
CHAIN
 48
12.22318172454834
100
AcDbLine
 10
22.53199490367455
 20
56.41293347059885
 30
0.0
 11
22.53199490367455
 21
50.91293347059885
 31
0.0
  0
DIMENSION
  5
ECB
330
77
100
AcDbEntity
  8
Dimension (ISO)
100
AcDbDimension
  2
*D19
 10
36.03199490367456
 20
78.66293347059883
 30
0.0
 11
24.67410404072101
 21
78.66293347059883
 31
0.0
 70
   160
  1
{\fAIGDT|b0|i0;\H1.7500;\ln\fTahoma|b0|i0;\H1.7500;}<>{\fTahoma|b0|i0;\H1.7500; (5x)}
 42
2.999999999999992
  3
Default (ISO)
100
AcDbAlignedDimension
 13
39.03199490367455
 23
83.66293347059883
 33
0.0
 14
36.03199490367456
 24
83.66293347059883
 34
0.0
 50
180.0
100
AcDbRotatedDimension
1001
ACAD
1000
DSTYLE
1002
{
1070
   172
1070
     1
1070
   289
1070
     1
1070
   271
1070
     0
1070
   272
1070
     2
1070
    48
1040
0.0
1070
    47
1040
0.0
1002
}
  0
ENDSEC
  0
SECTION
  2
OBJECTS
  0
DICTIONARY
  5
C
330
0
100
AcDbDictionary
281
     1
  3
ACAD_COLOR
350
6E
  3
ACAD_GROUP
350
D
  3
ACAD_IMAGE_DICT
350
111
  3
ACAD_IMAGE_VARS
350
FCA
  3
ACAD_LAYOUT
350
6D
  3
ACAD_MATERIAL
350
10
  3
ACAD_MLEADERSTYLE
350
71
  3
ACAD_MLINESTYLE
350
6A
  3
ACAD_PLOTSETTINGS
350
6C
  3
ACAD_PLOTSTYLENAME
350
E
  3
ACAD_SCALELIST
350
3D
  3
ACAD_TABLESTYLE
350
6F
  3
ACAD_VISUALSTYLE
350
29
  3
ACDB_RECOMPOSE_DATA
350
FDE
  3
AcDbVariableDictionary
350
7F
  3
DWGPROPS
350
FDF
  0
DICTIONARY
  5
FCB
330
77
100
AcDbDictionary
280
     1
281
     1
  3
ACAD_SORTENTS
360
FCC
  0
IMAGEDEF_REACTOR
  5
113
330
110
100
AcDbRasterImageDefReactor
 90
        2
330
110
  0
DICTIONARY
  5
FD8
330
14C
100
AcDbDictionary
280
     1
281
     1
  3
ACAD_MLATT
360
FDA
  3
ACAD_XREC_ROUNDTRIP
360
FD9
  0
DICTIONARY
  5
FDB
330
153
100
AcDbDictionary
280
     1
281
     1
  3
ACAD_MLATT
360
FDD
  3
ACAD_XREC_ROUNDTRIP
360
FDC
  0
DICTIONARY
  5
6E
102
{ACAD_REACTORS
330
C
102
}
330
C
100
AcDbDictionary
281
     1
  0
DICTIONARY
  5
D
102
{ACAD_REACTORS
330
C
102
}
330
C
100
AcDbDictionary
281
     1
  0
DICTIONARY
  5
111
102
{ACAD_REACTORS
330
C
102
}
330
C
100
AcDbDictionary
281
     1
  3
OAImg2129683712
350
112
  0
RASTERVARIABLES
  5
FCA
102
{ACAD_REACTORS
330
C
102
}
330
C
100
AcDbRasterVariables
 90
        0
 70
     0
 71
     1
 72
     1
  0
DICTIONARY
  5
6D
102
{ACAD_REACTORS
330
C
102
}
330
C
100
AcDbDictionary
281
     1
  3
Layout1
350
76
  3
Layout2
350
7E
  3
Model
350
7A
  0
DICTIONARY
  5
10
102
{ACAD_REACTORS
330
C
102
}
330
C
100
AcDbDictionary
281
     1
  3
ByBlock
350
19
  3
ByLayer
350
11
  3
Global
350
21
  0
DICTIONARY
  5
71
102
{ACAD_REACTORS
330
C
102
}
330
C
100
AcDbDictionary
281
     1
  3
Standard
350
72
  0
DICTIONARY
  5
6A
102
{ACAD_REACTORS
330
C
102
}
330
C
100
AcDbDictionary
281
     1
  3
Standard
350
6B
  0
DICTIONARY
  5
6C
102
{ACAD_REACTORS
330
C
102
}
330
C
100
AcDbDictionary
281
     1
  0
ACDBDICTIONARYWDFLT
  5
E
102
{ACAD_REACTORS
330
C
102
}
330
C
100
AcDbDictionary
281
     1
  3
Normal
350
F
100
AcDbDictionaryWithDefault
340
F
  0
DICTIONARY
  5
3D
102
{ACAD_REACTORS
330
C
102
}
330
C
100
AcDbDictionary
281
     1
  3
A0
350
3E
  3
A1
350
3F
  3
A2
350
40
  3
A3
350
41
  3
A4
350
42
  3
A5
350
43
  3
A6
350
44
  3
A7
350
45
  3
A8
350
46
  3
A9
350
47
  3
B0
350
48
  3
B1
350
49
  3
B2
350
4A
  3
B3
350
4B
  3
B4
350
4C
  3
B5
350
4D
  3
B6
350
4E
  3
B7
350
4F
  3
B8
350
50
  3
B9
350
51
  3
C0
350
52
  3
C1
350
53
  3
C2
350
54
  3
C3
350
55
  3
C4
350
56
  3
C5
350
57
  3
C6
350
58
  3
C7
350
59
  3
C8
350
5A
  3
C9
350
5B
  3
D0
350
5C
  3
D1
350
5D
  3
D2
350
5E
  0
DICTIONARY
  5
6F
102
{ACAD_REACTORS
330
C
102
}
330
C
100
AcDbDictionary
281
     1
  3
Standard
350
70
  0
DICTIONARY
  5
29
102
{ACAD_REACTORS
330
C
102
}
330
C
100
AcDbDictionary
281
     1
  3
2dWireframe
350
2F
  3
3D Hidden
350
31
  3
3dWireframe
350
30
  3
Basic
350
2E
  3
Brighten
350
35
  3
ColorChange
350
39
  3
Conceptual
350
32
  3
Dim
350
34
  3
EdgeColorOff
350
3C
  3
Facepattern
350
38
  3
Flat
350
2A
  3
FlatWithEdges
350
2B
  3
Gouraud
350
2C
  3
GouraudWithEdges
350
2D
  3
JitterOff
350
3A
  3
Linepattern
350
37
  3
OverhangOff
350
3B
  3
Realistic
350
33
  3
Thicken
350
36
  0
XRECORD
  5
FDE
102
{ACAD_REACTORS
330
C
102
}
330
C
100
AcDbXrecord
280
     1
 90
        1
330
70
330
14C
330
153
  0
DICTIONARY
  5
7F
102
{ACAD_REACTORS
330
C
102
}
330
C
100
AcDbDictionary
281
     1
  3
CANNOSCALE
350
82
  3
CMLEADERSTYLE
350
81
  3
CTABLESTYLE
350
80
  3
DIMASSOC
350
FD4
  3
HIDETEXT
350
FD3
  3
INDEXCTL
350
FD2
  3
LAYEREVAL
350
FCF
  3
LAYERNOTIFY
350
FD0
  3
LIGHTINGUNITS
350
FCE
  3
MSLTSCALE
350
FCD
  3
SORTENTS
350
FD1
  3
XCLIPFRAME
350
FD5
  0
XRECORD
  5
FDF
102
{ACAD_REACTORS
330
C
102
}
330
C
100
AcDbXrecord
280
     1
  1
DWGPROPS COOKIE
  2

  3

  4
Jeff
  6

  7

  8

  9

300
Manager=
301
Company=
302
Category=
303
Part Number=103004
304
Description=
305
Project=
306
Designer=Jeff
307
Engineer=
308
Authority=
309
Cost Center=
 40
0.0001959375
 41
2457218.095069271
 42
2457218.095069271
  1

 90
       16
300
Vendor=
300
User Status=
300
Design Status=WorkInProgress
300
Checked by=
300
Engr Approved by=
300
Mfg Approved by=
  0
SORTENTSTABLE
  5
FCC
102
{ACAD_REACTORS
330
FCB
102
}
330
FCB
100
AcDbSortentsTable
330
77
331
331
  5
331
331
34B
  5
34B
331
25C
  5
25C
331
242
  5
242
331
220
  5
220
331
36D
  5
36D
331
27E
  5
27E
331
2A0
  5
2A0
331
2C2
  5
2C2
331
2DC
  5
2DC
331
2FE
  5
2FE
331
320
  5
320
331
342
  5
342
331
253
  5
253
331
231
  5
231
331
20F
  5
20F
331
1ED
  5
1ED
331
1D3
  5
1D3
331
1B1
  5
1B1
331
18F
  5
18F
331
16D
  5
16D
331
35C
  5
35C
331
26D
  5
26D
331
28F
  5
28F
331
2B1
  5
2B1
331
2ED
  5
2ED
331
30F
  5
30F
331
1FE
  5
1FE
331
1C2
  5
1C2
331
1A0
  5
1A0
331
17E
  5
17E
331
164
  5
164
331
ECA
  5
ECA
331
349
  5
349
331
25A
  5
25A
331
240
  5
240
331
36B
  5
36B
331
27C
  5
27C
331
29E
  5
29E
331
2C0
  5
2C0
331
2DA
  5
2DA
331
2FC
  5
2FC
331
31E
  5
31E
331
340
  5
340
331
251
  5
251
331
22F
  5
22F
331
20D
  5
20D
331
1EB
  5
1EB
331
1D1
  5
1D1
331
1AF
  5
1AF
331
18D
  5
18D
331
16B
  5
16B
331
35A
  5
35A
331
26B
  5
26B
331
28D
  5
28D
331
2AF
  5
2AF
331
2EB
  5
2EB
331
30D
  5
30D
331
547
  5
547
331
32F
  5
32F
331
21E
  5
21E
331
1FC
  5
1FC
331
1C0
  5
1C0
331
19E
  5
19E
331
17C
  5
17C
331
162
  5
162
331
EC8
  5
EC8
331
258
  5
258
331
369
  5
369
331
27A
  5
27A
331
29C
  5
29C
331
2BE
  5
2BE
331
2D8
  5
2D8
331
2FA
  5
2FA
331
31C
  5
31C
331
33E
  5
33E
331
24F
  5
24F
331
22D
  5
22D
331
20B
  5
20B
331
1E9
  5
1E9
331
1CF
  5
1CF
331
1AD
  5
1AD
331
18B
  5
18B
331
169
  5
169
331
358
  5
358
331
269
  5
269
331
28B
  5
28B
331
2AD
  5
2AD
331
2E9
  5
2E9
331
2CF
  5
2CF
331
30B
  5
30B
331
32D
  5
32D
331
23E
  5
23E
331
21C
  5
21C
331
1FA
  5
1FA
331
1BE
  5
1BE
331
19C
  5
19C
331
17A
  5
17A
331
160
  5
160
331
278
  5
278
331
29A
  5
29A
331
2BC
  5
2BC
331
2D6
  5
2D6
331
2F8
  5
2F8
331
31A
  5
31A
331
33C
  5
33C
331
24D
  5
24D
331
22B
  5
22B
331
209
  5
209
331
1E7
  5
1E7
331
1CD
  5
1CD
331
1AB
  5
1AB
331
189
  5
189
331
356
  5
356
331
267
  5
267
331
289
  5
289
331
2AB
  5
2AB
331
2CD
  5
2CD
331
2E7
  5
2E7
331
309
  5
309
331
32B
  5
32B
331
EC6
  5
EC6
331
367
  5
367
331
23C
  5
23C
331
21A
  5
21A
331
1F8
  5
1F8
331
1DE
  5
1DE
331
1BC
  5
1BC
331
19A
  5
19A
331
178
  5
178
331
15E
  5
15E
331
298
  5
298
331
2BA
  5
2BA
331
2D4
  5
2D4
331
2F6
  5
2F6
331
318
  5
318
331
33A
  5
33A
331
24B
  5
24B
331
229
  5
229
331
207
  5
207
331
1E5
  5
1E5
331
1CB
  5
1CB
331
1A9
  5
1A9
331
354
  5
354
331
265
  5
265
331
287
  5
287
331
2A9
  5
2A9
331
2CB
  5
2CB
331
2E5
  5
2E5
331
307
  5
307
331
329
  5
329
331
EC4
  5
EC4
331
365
  5
365
331
276
  5
276
331
23A
  5
23A
331
218
  5
218
331
1F6
  5
1F6
331
1DC
  5
1DC
331
1BA
  5
1BA
331
198
  5
198
331
187
  5
187
331
176
  5
176
331
15C
  5
15C
331
2B8
  5
2B8
331
7E1
  5
7E1
331
2D2
  5
2D2
331
C33
  5
C33
331
2F4
  5
2F4
331
316
  5
316
331
338
  5
338
331
352
  5
352
331
263
  5
263
331
249
  5
249
331
227
  5
227
331
205
  5
205
331
1E3
  5
1E3
331
1C9
  5
1C9
331
285
  5
285
331
2A7
  5
2A7
331
2C9
  5
2C9
331
2E3
  5
2E3
331
305
  5
305
331
327
  5
327
331
EC2
  5
EC2
331
363
  5
363
331
274
  5
274
331
238
  5
238
331
216
  5
216
331
1F4
  5
1F4
331
1DA
  5
1DA
331
1B8
  5
1B8
331
196
  5
196
331
296
  5
296
331
1A7
  5
1A7
331
185
  5
185
331
174
  5
174
331
2D0
  5
2D0
331
2F2
  5
2F2
331
314
  5
314
331
336
  5
336
331
350
  5
350
331
261
  5
261
331
247
  5
247
331
225
  5
225
331
203
  5
203
331
1E1
  5
1E1
331
372
  5
372
331
283
  5
283
331
2A5
  5
2A5
331
2C7
  5
2C7
331
2E1
  5
2E1
331
303
  5
303
331
325
  5
325
331
999
  5
999
331
361
  5
361
331
347
  5
347
331
272
  5
272
331
236
  5
236
331
214
  5
214
331
1F2
  5
1F2
331
1D8
  5
1D8
331
1B6
  5
1B6
331
194
  5
194
331
294
  5
294
331
2B6
  5
2B6
331
1C7
  5
1C7
331
1A5
  5
1A5
331
183
  5
183
331
172
  5
172
331
2F0
  5
2F0
331
312
  5
312
331
334
  5
334
331
34E
  5
34E
331
25F
  5
25F
331
245
  5
245
331
223
  5
223
331
201
  5
201
331
370
  5
370
331
281
  5
281
331
2A3
  5
2A3
331
D15
  5
D15
331
2C5
  5
2C5
331
2DF
  5
2DF
331
B51
  5
B51
331
301
  5
301
331
323
  5
323
331
345
  5
345
331
256
  5
256
331
234
  5
234
331
212
  5
212
331
1F0
  5
1F0
331
1D6
  5
1D6
331
1B4
  5
1B4
331
192
  5
192
331
170
  5
170
331
35F
  5
35F
331
270
  5
270
331
292
  5
292
331
2B4
  5
2B4
331
1C5
  5
1C5
331
1A3
  5
1A3
331
181
  5
181
331
167
  5
167
331
310
  5
310
331
332
  5
332
331
34C
  5
34C
331
25D
  5
25D
331
243
  5
243
331
221
  5
221
331
36E
  5
36E
331
8B7
  5
8B7
331
27F
  5
27F
331
2A1
  5
2A1
331
2C3
  5
2C3
331
2DD
  5
2DD
331
2FF
  5
2FF
331
321
  5
321
331
343
  5
343
331
254
  5
254
331
232
  5
232
331
210
  5
210
331
1EE
  5
1EE
331
1D4
  5
1D4
331
1B2
  5
1B2
331
190
  5
190
331
16E
  5
16E
331
35D
  5
35D
331
26E
  5
26E
331
290
  5
290
331
2B2
  5
2B2
331
2EE
  5
2EE
331
1FF
  5
1FF
331
1C3
  5
1C3
331
1A1
  5
1A1
331
17F
  5
17F
331
165
  5
165
331
330
  5
330
331
ECB
  5
ECB
331
34A
  5
34A
331
25B
  5
25B
331
241
  5
241
331
36C
  5
36C
331
27D
  5
27D
331
29F
  5
29F
331
2C1
  5
2C1
331
2DB
  5
2DB
331
2FD
  5
2FD
331
31F
  5
31F
331
341
  5
341
331
252
  5
252
331
230
  5
230
331
20E
  5
20E
331
1EC
  5
1EC
331
1D2
  5
1D2
331
1B0
  5
1B0
331
18E
  5
18E
331
16C
  5
16C
331
35B
  5
35B
331
26C
  5
26C
331
28E
  5
28E
331
2B0
  5
2B0
331
2EC
  5
2EC
331
30E
  5
30E
331
A6F
  5
A6F
331
21F
  5
21F
331
1FD
  5
1FD
331
1C1
  5
1C1
331
19F
  5
19F
331
17D
  5
17D
331
163
  5
163
331
EC9
  5
EC9
331
348
  5
348
331
259
  5
259
331
36A
  5
36A
331
27B
  5
27B
331
29D
  5
29D
331
2BF
  5
2BF
331
2D9
  5
2D9
331
2FB
  5
2FB
331
31D
  5
31D
331
33F
  5
33F
331
250
  5
250
331
22E
  5
22E
331
20C
  5
20C
331
1EA
  5
1EA
331
1D0
  5
1D0
331
1AE
  5
1AE
331
18C
  5
18C
331
16A
  5
16A
331
359
  5
359
331
DEB
  5
DEB
331
26A
  5
26A
331
28C
  5
28C
331
2AE
  5
2AE
331
2EA
  5
2EA
331
30C
  5
30C
331
32E
  5
32E
331
23F
  5
23F
331
21D
  5
21D
331
1FB
  5
1FB
331
1BF
  5
1BF
331
19D
  5
19D
331
17B
  5
17B
331
161
  5
161
331
150
  5
150
331
368
  5
368
331
279
  5
279
331
29B
  5
29B
331
2BD
  5
2BD
331
2D7
  5
2D7
331
2F9
  5
2F9
331
31B
  5
31B
331
33D
  5
33D
331
24E
  5
24E
331
22C
  5
22C
331
20A
  5
20A
331
1E8
  5
1E8
331
1CE
  5
1CE
331
1AC
  5
1AC
331
18A
  5
18A
331
168
  5
168
331
357
  5
357
331
268
  5
268
331
28A
  5
28A
331
2AC
  5
2AC
331
2CE
  5
2CE
331
2E8
  5
2E8
331
30A
  5
30A
331
32C
  5
32C
331
EC7
  5
EC7
331
23D
  5
23D
331
21B
  5
21B
331
1F9
  5
1F9
331
1DF
  5
1DF
331
1BD
  5
1BD
331
19B
  5
19B
331
179
  5
179
331
15F
  5
15F
331
299
  5
299
331
2BB
  5
2BB
331
2D5
  5
2D5
331
2F7
  5
2F7
331
319
  5
319
331
33B
  5
33B
331
24C
  5
24C
331
22A
  5
22A
331
208
  5
208
331
1E6
  5
1E6
331
1CC
  5
1CC
331
1AA
  5
1AA
331
188
  5
188
331
355
  5
355
331
266
  5
266
331
288
  5
288
331
2AA
  5
2AA
331
2CC
  5
2CC
331
2E6
  5
2E6
331
308
  5
308
331
32A
  5
32A
331
EC5
  5
EC5
331
366
  5
366
331
277
  5
277
331
23B
  5
23B
331
219
  5
219
331
1F7
  5
1F7
331
1DD
  5
1DD
331
1BB
  5
1BB
331
199
  5
199
331
177
  5
177
331
15D
  5
15D
331
2B9
  5
2B9
331
2D3
  5
2D3
331
2F5
  5
2F5
331
317
  5
317
331
339
  5
339
331
24A
  5
24A
331
228
  5
228
331
206
  5
206
331
1E4
  5
1E4
331
1CA
  5
1CA
331
1A8
  5
1A8
331
353
  5
353
331
264
  5
264
331
286
  5
286
331
2A8
  5
2A8
331
2CA
  5
2CA
331
2E4
  5
2E4
331
306
  5
306
331
328
  5
328
331
EC3
  5
EC3
331
364
  5
364
331
275
  5
275
331
239
  5
239
331
217
  5
217
331
1F5
  5
1F5
331
1DB
  5
1DB
331
1B9
  5
1B9
331
197
  5
197
331
297
  5
297
331
186
  5
186
331
175
  5
175
331
15B
  5
15B
331
2D1
  5
2D1
331
70B
  5
70B
331
2F3
  5
2F3
331
315
  5
315
331
337
  5
337
331
351
  5
351
331
262
  5
262
331
248
  5
248
331
226
  5
226
331
204
  5
204
331
1E2
  5
1E2
331
1C8
  5
1C8
331
284
  5
284
331
2A6
  5
2A6
331
2C8
  5
2C8
331
2E2
  5
2E2
331
304
  5
304
331
326
  5
326
331
EC1
  5
EC1
331
471
  5
471
331
362
  5
362
331
273
  5
273
331
237
  5
237
331
215
  5
215
331
1F3
  5
1F3
331
1D9
  5
1D9
331
1B7
  5
1B7
331
195
  5
195
331
295
  5
295
331
2B7
  5
2B7
331
1A6
  5
1A6
331
184
  5
184
331
173
  5
173
331
2F1
  5
2F1
331
313
  5
313
331
335
  5
335
331
34F
  5
34F
331
260
  5
260
331
246
  5
246
331
224
  5
224
331
202
  5
202
331
1E0
  5
1E0
331
371
  5
371
331
282
  5
282
331
2A4
  5
2A4
331
2C6
  5
2C6
331
2E0
  5
2E0
331
302
  5
302
331
324
  5
324
331
346
  5
346
331
360
  5
360
331
271
  5
271
331
257
  5
257
331
235
  5
235
331
213
  5
213
331
1F1
  5
1F1
331
1D7
  5
1D7
331
1B5
  5
1B5
331
193
  5
193
331
293
  5
293
331
2B5
  5
2B5
331
1C6
  5
1C6
331
1A4
  5
1A4
331
182
  5
182
331
171
  5
171
331
311
  5
311
331
333
  5
333
331
34D
  5
34D
331
25E
  5
25E
331
244
  5
244
331
222
  5
222
331
200
  5
200
331
36F
  5
36F
331
280
  5
280
331
2A2
  5
2A2
331
2C4
  5
2C4
331
2DE
  5
2DE
331
300
  5
300
331
629
  5
629
331
322
  5
322
331
344
  5
344
331
255
  5
255
331
233
  5
233
331
211
  5
211
331
1EF
  5
1EF
331
1D5
  5
1D5
331
1B3
  5
1B3
331
191
  5
191
331
16F
  5
16F
331
35E
  5
35E
331
26F
  5
26F
331
291
  5
291
331
2B3
  5
2B3
331
2EF
  5
2EF
331
1C4
  5
1C4
331
1A2
  5
1A2
331
180
  5
180
331
166
  5
166
  0
XRECORD
  5
FDA
102
{ACAD_REACTORS
330
FD8
102
}
330
FD8
100
AcDbXrecord
280
     1
 70
     4
 70
     0
 70
     0
 40
1.0
  2
CREATION_DATE
  1
Embedded Object
 10
92.40801499404007
 20
48.98710894474027
 30
0.0
 40
3.499999940395355
 41
0.0
 46
0.0
 71
     1
 72
     5
  1
18-4-2017
  7
Text Style289
 73
     1
 44
1.0
  0
XRECORD
  5
FD9
102
{ACAD_REACTORS
330
FD8
102
}
330
FD8
100
AcDbXrecord
280
     1
102
ACAD_MATT_HEIGHT
140
3.499999940395355
  0
XRECORD
  5
FDD
102
{ACAD_REACTORS
330
FDB
102
}
330
FDB
100
AcDbXrecord
280
     1
 70
     2
 70
     0
 70
     0
 40
1.0
  2
CREATION_DATE
  1
Embedded Object
 10
20.24999999999995
 20
11.80851914759997
 30
0.0
 40
1.749999970197677
 41
0.0
 46
0.0
 71
     1
 72
     5
  1
18-4-2017
  7
Text Style289
 73
     1
 44
1.0
  0
XRECORD
  5
FDC
102
{ACAD_REACTORS
330
FDB
102
}
330
FDB
100
AcDbXrecord
280
     1
102
ACAD_MATT_HEIGHT
140
1.749999970197677
  0
IMAGEDEF
  5
112
102
{ACAD_REACTORS
330
111
330
113
102
}
330
111
100
AcDbRasterImageDef
 90
        0
  1
G:\Makerbeam\Mail 8-5-2017\1030040.bmp
 10
245.0
 20
97.0
 11
0.2645502645502646
 21
0.2645502645502646
280
     1
281
     2
  0
LAYOUT
  5
76
102
{ACAD_XDICTIONARY
360
100B
102
}
102
{ACAD_REACTORS
330
6D
102
}
330
6D
100
AcDbPlotSettings
  1

  2

  4

  6

 40
0.0
 41
0.0
 42
0.0
 43
0.0
 44
0.0
 45
0.0
 46
0.0
 47
0.0
 48
0.0
 49
0.0
140
0.0
141
0.0
142
1.0
143
1.0
 70
   688
 72
     0
 73
     0
 74
     5
  7

 75
    16
147
1.0
148
0.0
149
0.0
100
AcDbLayout
  1
Layout1
 70
     1
 71
     1
 10
0.0
 20
0.0
 11
12.0
 21
9.0
 12
0.0
 22
0.0
 32
0.0
 14
0.0
 24
0.0
 34
0.0
 15
0.0
 25
0.0
 35
0.0
146
0.0
 13
0.0
 23
0.0
 33
0.0
 16
1.0
 26
0.0
 36
0.0
 17
0.0
 27
1.0
 37
0.0
 76
     0
330
73
  0
LAYOUT
  5
7E
102
{ACAD_XDICTIONARY
360
100F
102
}
102
{ACAD_REACTORS
330
6D
102
}
330
6D
100
AcDbPlotSettings
  1

  2

  4

  6

 40
0.0
 41
0.0
 42
0.0
 43
0.0
 44
0.0
 45
0.0
 46
0.0
 47
0.0
 48
0.0
 49
0.0
140
0.0
141
0.0
142
1.0
143
1.0
 70
   688
 72
     0
 73
     0
 74
     5
  7

 75
    16
147
1.0
148
0.0
149
0.0
100
AcDbLayout
  1
Layout2
 70
     1
 71
     2
 10
0.0
 20
0.0
 11
12.0
 21
9.0
 12
0.0
 22
0.0
 32
0.0
 14
0.0
 24
0.0
 34
0.0
 15
0.0
 25
0.0
 35
0.0
146
0.0
 13
0.0
 23
0.0
 33
0.0
 16
1.0
 26
0.0
 36
0.0
 17
0.0
 27
1.0
 37
0.0
 76
     0
330
7B
  0
LAYOUT
  5
7A
102
{ACAD_XDICTIONARY
360
100D
102
}
102
{ACAD_REACTORS
330
6D
102
}
330
6D
100
AcDbPlotSettings
  1

  2

  4

  6

 40
0.0
 41
0.0
 42
0.0
 43
0.0
 44
0.0
 45
0.0
 46
0.0
 47
0.0
 48
0.0
 49
0.0
140
0.0
141
0.0
142
1.0
143
1.0
 70
  1712
 72
     0
 73
     0
 74
     0
  7

 75
     0
147
1.0
148
0.0
149
0.0
100
AcDbLayout
  1
Model
 70
     1
 71
     0
 10
0.0
 20
0.0
 11
12.0
 21
9.0
 12
0.0
 22
0.0
 32
0.0
 14
0.0
 24
0.0
 34
0.0
 15
0.0
 25
0.0
 35
0.0
146
0.0
 13
0.0
 23
0.0
 33
0.0
 16
1.0
 26
0.0
 36
0.0
 17
0.0
 27
1.0
 37
0.0
 76
     0
330
77
  0
MATERIAL
  5
19
102
{ACAD_XDICTIONARY
360
1A
102
}
102
{ACAD_REACTORS
330
10
102
}
330
10
100
AcDbMaterial
  1
ByBlock
 72
     0
 43
0.0208333333333333
 43
0.0
 43
0.0
 43
0.0
 43
0.0
 43
0.0208333333333333
 43
0.0
 43
0.0
 43
0.0
 43
0.0
 43
1.0
 43
0.0
 43
0.0
 43
0.0
 43
0.0
 43
1.0
 77
     0
 47
0.0208333333333333
 47
0.0
 47
0.0
 47
0.0
 47
0.0
 47
0.0208333333333333
 47
0.0
 47
0.0
 47
0.0
 47
0.0
 47
1.0
 47
0.0
 47
0.0
 47
0.0
 47
0.0
 47
1.0
171
     0
 49
0.0208333333333333
 49
0.0
 49
0.0
 49
0.0
 49
0.0
 49
0.0208333333333333
 49
0.0
 49
0.0
 49
0.0
 49
0.0
 49
1.0
 49
0.0
 49
0.0
 49
0.0
 49
0.0
 49
1.0
175
     0
142
0.0208333333333333
142
0.0
142
0.0
142
0.0
142
0.0
142
0.0208333333333333
142
0.0
142
0.0
142
0.0
142
0.0
142
1.0
142
0.0
142
0.0
142
0.0
142
0.0
142
1.0
179
     0
144
0.0208333333333333
144
0.0
144
0.0
144
0.0
144
0.0
144
0.0208333333333333
144
0.0
144
0.0
144
0.0
144
0.0
144
1.0
144
0.0
144
0.0
144
0.0
144
0.0
144
1.0
147
0.0208333333333333
147
0.0
147
0.0
147
0.0
147
0.0
147
0.0208333333333333
147
0.0
147
0.0
147
0.0
147
0.0
147
1.0
147
0.0
147
0.0
147
0.0
147
0.0
147
1.0
  0
MATERIAL
  5
11
102
{ACAD_XDICTIONARY
360
12
102
}
102
{ACAD_REACTORS
330
10
102
}
330
10
100
AcDbMaterial
  1
ByLayer
 72
     0
 43
0.0208333333333333
 43
0.0
 43
0.0
 43
0.0
 43
0.0
 43
0.0208333333333333
 43
0.0
 43
0.0
 43
0.0
 43
0.0
 43
1.0
 43
0.0
 43
0.0
 43
0.0
 43
0.0
 43
1.0
 77
     0
 47
0.0208333333333333
 47
0.0
 47
0.0
 47
0.0
 47
0.0
 47
0.0208333333333333
 47
0.0
 47
0.0
 47
0.0
 47
0.0
 47
1.0
 47
0.0
 47
0.0
 47
0.0
 47
0.0
 47
1.0
171
     0
 49
0.0208333333333333
 49
0.0
 49
0.0
 49
0.0
 49
0.0
 49
0.0208333333333333
 49
0.0
 49
0.0
 49
0.0
 49
0.0
 49
1.0
 49
0.0
 49
0.0
 49
0.0
 49
0.0
 49
1.0
175
     0
142
0.0208333333333333
142
0.0
142
0.0
142
0.0
142
0.0
142
0.0208333333333333
142
0.0
142
0.0
142
0.0
142
0.0
142
1.0
142
0.0
142
0.0
142
0.0
142
0.0
142
1.0
179
     0
144
0.0208333333333333
144
0.0
144
0.0
144
0.0
144
0.0
144
0.0208333333333333
144
0.0
144
0.0
144
0.0
144
0.0
144
1.0
144
0.0
144
0.0
144
0.0
144
0.0
144
1.0
147
0.0208333333333333
147
0.0
147
0.0
147
0.0
147
0.0
147
0.0208333333333333
147
0.0
147
0.0
147
0.0
147
0.0
147
1.0
147
0.0
147
0.0
147
0.0
147
0.0
147
1.0
  0
MATERIAL
  5
21
102
{ACAD_XDICTIONARY
360
22
102
}
102
{ACAD_REACTORS
330
10
102
}
330
10
100
AcDbMaterial
  1
Global
 72
     0
 43
0.0208333333333333
 43
0.0
 43
0.0
 43
0.0
 43
0.0
 43
0.0208333333333333
 43
0.0
 43
0.0
 43
0.0
 43
0.0
 43
1.0
 43
0.0
 43
0.0
 43
0.0
 43
0.0
 43
1.0
 77
     0
 47
0.0208333333333333
 47
0.0
 47
0.0
 47
0.0
 47
0.0
 47
0.0208333333333333
 47
0.0
 47
0.0
 47
0.0
 47
0.0
 47
1.0
 47
0.0
 47
0.0
 47
0.0
 47
0.0
 47
1.0
171
     0
 49
0.0208333333333333
 49
0.0
 49
0.0
 49
0.0
 49
0.0
 49
0.0208333333333333
 49
0.0
 49
0.0
 49
0.0
 49
0.0
 49
1.0
 49
0.0
 49
0.0
 49
0.0
 49
0.0
 49
1.0
175
     0
142
0.0208333333333333
142
0.0
142
0.0
142
0.0
142
0.0
142
0.0208333333333333
142
0.0
142
0.0
142
0.0
142
0.0
142
1.0
142
0.0
142
0.0
142
0.0
142
0.0
142
1.0
179
     0
144
0.0208333333333333
144
0.0
144
0.0
144
0.0
144
0.0
144
0.0208333333333333
144
0.0
144
0.0
144
0.0
144
0.0
144
1.0
144
0.0
144
0.0
144
0.0
144
0.0
144
1.0
147
0.0208333333333333
147
0.0
147
0.0
147
0.0
147
0.0
147
0.0208333333333333
147
0.0
147
0.0
147
0.0
147
0.0
147
1.0
147
0.0
147
0.0
147
0.0
147
0.0
147
1.0
  0
MLEADERSTYLE
  5
72
102
{ACAD_REACTORS
330
71
102
}
330
71
100
AcDbMLeaderStyle
170
     2
171
     1
172
     0
 90
        2
 40
0.0
 41
0.0
173
     1
 91
-1056964608
340
66
 92
       -2
290
     1
 42
0.09
291
     1
 43
0.36
  3
Standard
 44
0.18
300

342
60
174
     1
178
     6
175
     1
176
     0
 93
-1056964608
 45
0.18
292
     0
297
     0
 46
0.18
 94
-1056964608
 47
1.0
 49
1.0
140
1.0
293
     1
141
0.0
294
     1
177
     0
142
1.0
295
     0
296
     0
143
0.125
1001
ACAD_MLEADERVER
1070
     2
  0
MLINESTYLE
  5
6B
102
{ACAD_REACTORS
330
6A
102
}
330
6A
100
AcDbMlineStyle
  2
STANDARD
 70
     0
  3

 62
   256
 51
90.0
 52
90.0
 71
     2
 49
0.5
 62
   256
  6
BYLAYER
 49
-0.5
 62
   256
  6
BYLAYER
  0
ACDBPLACEHOLDER
  5
F
102
{ACAD_REACTORS
330
E
102
}
330
E
  0
SCALE
  5
3E
102
{ACAD_REACTORS
330
3D
102
}
330
3D
100
AcDbScale
 70
     0
300
1:1
140
1.0
141
1.0
290
     1
  0
SCALE
  5
3F
102
{ACAD_REACTORS
330
3D
102
}
330
3D
100
AcDbScale
 70
     0
300
1:2
140
1.0
141
2.0
290
     0
  0
SCALE
  5
40
102
{ACAD_REACTORS
330
3D
102
}
330
3D
100
AcDbScale
 70
     0
300
1:4
140
1.0
141
4.0
290
     0
  0
SCALE
  5
41
102
{ACAD_REACTORS
330
3D
102
}
330
3D
100
AcDbScale
 70
     0
300
1:5
140
1.0
141
5.0
290
     0
  0
SCALE
  5
42
102
{ACAD_REACTORS
330
3D
102
}
330
3D
100
AcDbScale
 70
     0
300
1:8
140
1.0
141
8.0
290
     0
  0
SCALE
  5
43
102
{ACAD_REACTORS
330
3D
102
}
330
3D
100
AcDbScale
 70
     0
300
1:10
140
1.0
141
10.0
290
     0
  0
SCALE
  5
44
102
{ACAD_REACTORS
330
3D
102
}
330
3D
100
AcDbScale
 70
     0
300
1:16
140
1.0
141
16.0
290
     0
  0
SCALE
  5
45
102
{ACAD_REACTORS
330
3D
102
}
330
3D
100
AcDbScale
 70
     0
300
1:20
140
1.0
141
20.0
290
     0
  0
SCALE
  5
46
102
{ACAD_REACTORS
330
3D
102
}
330
3D
100
AcDbScale
 70
     0
300
1:30
140
1.0
141
30.0
290
     0
  0
SCALE
  5
47
102
{ACAD_REACTORS
330
3D
102
}
330
3D
100
AcDbScale
 70
     0
300
1:40
140
1.0
141
40.0
290
     0
  0
SCALE
  5
48
102
{ACAD_REACTORS
330
3D
102
}
330
3D
100
AcDbScale
 70
     0
300
1:50
140
1.0
141
50.0
290
     0
  0
SCALE
  5
49
102
{ACAD_REACTORS
330
3D
102
}
330
3D
100
AcDbScale
 70
     0
300
1:100
140
1.0
141
100.0
290
     0
  0
SCALE
  5
4A
102
{ACAD_REACTORS
330
3D
102
}
330
3D
100
AcDbScale
 70
     0
300
2:1
140
2.0
141
1.0
290
     0
  0
SCALE
  5
4B
102
{ACAD_REACTORS
330
3D
102
}
330
3D
100
AcDbScale
 70
     0
300
4:1
140
4.0
141
1.0
290
     0
  0
SCALE
  5
4C
102
{ACAD_REACTORS
330
3D
102
}
330
3D
100
AcDbScale
 70
     0
300
8:1
140
8.0
141
1.0
290
     0
  0
SCALE
  5
4D
102
{ACAD_REACTORS
330
3D
102
}
330
3D
100
AcDbScale
 70
     0
300
10:1
140
10.0
141
1.0
290
     0
  0
SCALE
  5
4E
102
{ACAD_REACTORS
330
3D
102
}
330
3D
100
AcDbScale
 70
     0
300
100:1
140
100.0
141
1.0
290
     0
  0
SCALE
  5
4F
102
{ACAD_REACTORS
330
3D
102
}
330
3D
100
AcDbScale
 70
     0
300
1/128" = 1'-0"
140
0.0078125
141
12.0
290
     0
  0
SCALE
  5
50
102
{ACAD_REACTORS
330
3D
102
}
330
3D
100
AcDbScale
 70
     0
300
1/64" = 1'-0"
140
0.015625
141
12.0
290
     0
  0
SCALE
  5
51
102
{ACAD_REACTORS
330
3D
102
}
330
3D
100
AcDbScale
 70
     0
300
1/32" = 1'-0"
140
0.03125
141
12.0
290
     0
  0
SCALE
  5
52
102
{ACAD_REACTORS
330
3D
102
}
330
3D
100
AcDbScale
 70
     0
300
1/16" = 1'-0"
140
0.0625
141
12.0
290
     0
  0
SCALE
  5
53
102
{ACAD_REACTORS
330
3D
102
}
330
3D
100
AcDbScale
 70
     0
300
3/32" = 1'-0"
140
0.09375
141
12.0
290
     0
  0
SCALE
  5
54
102
{ACAD_REACTORS
330
3D
102
}
330
3D
100
AcDbScale
 70
     0
300
1/8" = 1'-0"
140
0.125
141
12.0
290
     0
  0
SCALE
  5
55
102
{ACAD_REACTORS
330
3D
102
}
330
3D
100
AcDbScale
 70
     0
300
3/16" = 1'-0"
140
0.1875
141
12.0
290
     0
  0
SCALE
  5
56
102
{ACAD_REACTORS
330
3D
102
}
330
3D
100
AcDbScale
 70
     0
300
1/4" = 1'-0"
140
0.25
141
12.0
290
     0
  0
SCALE
  5
57
102
{ACAD_REACTORS
330
3D
102
}
330
3D
100
AcDbScale
 70
     0
300
3/8" = 1'-0"
140
0.375
141
12.0
290
     0
  0
SCALE
  5
58
102
{ACAD_REACTORS
330
3D
102
}
330
3D
100
AcDbScale
 70
     0
300
1/2" = 1'-0"
140
0.5
141
12.0
290
     0
  0
SCALE
  5
59
102
{ACAD_REACTORS
330
3D
102
}
330
3D
100
AcDbScale
 70
     0
300
3/4" = 1'-0"
140
0.75
141
12.0
290
     0
  0
SCALE
  5
5A
102
{ACAD_REACTORS
330
3D
102
}
330
3D
100
AcDbScale
 70
     0
300
1" = 1'-0"
140
1.0
141
12.0
290
     0
  0
SCALE
  5
5B
102
{ACAD_REACTORS
330
3D
102
}
330
3D
100
AcDbScale
 70
     0
300
1-1/2" = 1'-0"
140
1.5
141
12.0
290
     0
  0
SCALE
  5
5C
102
{ACAD_REACTORS
330
3D
102
}
330
3D
100
AcDbScale
 70
     0
300
3" = 1'-0"
140
3.0
141
12.0
290
     0
  0
SCALE
  5
5D
102
{ACAD_REACTORS
330
3D
102
}
330
3D
100
AcDbScale
 70
     0
300
6" = 1'-0"
140
6.0
141
12.0
290
     0
  0
SCALE
  5
5E
102
{ACAD_REACTORS
330
3D
102
}
330
3D
100
AcDbScale
 70
     0
300
1'-0" = 1'-0"
140
12.0
141
12.0
290
     0
  0
TABLESTYLE
  5
70
102
{ACAD_XDICTIONARY
360
FD6
102
}
102
{ACAD_REACTORS
330
6F
102
}
330
6F
100
AcDbTableStyle
  3
Standard
 70
     0
 71
     0
 40
0.06
 41
0.06
280
     0
281
     0
  7
Standard
140
0.18
170
     2
 62
     0
 63
     7
283
     0
274
    -2
284
     1
 64
     0
275
    -2
285
     1
 65
     0
276
    -2
286
     1
 66
     0
277
    -2
287
     1
 67
     0
278
    -2
288
     1
 68
     0
279
    -2
289
     1
 69
     0
  7
Standard
140
0.25
170
     5
 62
     0
 63
     7
283
     0
274
    -2
284
     1
 64
     0
275
    -2
285
     1
 65
     0
276
    -2
286
     1
 66
     0
277
    -2
287
     1
 67
     0
278
    -2
288
     1
 68
     0
279
    -2
289
     1
 69
     0
  7
Standard
140
0.18
170
     5
 62
     0
 63
     7
283
     0
274
    -2
284
     1
 64
     0
275
    -2
285
     1
 65
     0
276
    -2
286
     1
 66
     0
277
    -2
287
     1
 67
     0
278
    -2
288
     1
 68
     0
279
    -2
289
     1
 69
     0
  0
VISUALSTYLE
  5
2F
102
{ACAD_XDICTIONARY
360
FED
102
}
102
{ACAD_REACTORS
330
29
102
}
330
29
100
AcDbVisualStyle
  2
2dWireframe
 70
     4
 71
     0
 72
     2
 73
     0
 90
        0
 40
-0.6
 41
-30.0
 62
     5
 63
     7
 74
     1
 91
        4
 64
     7
 65
   257
 75
     1
175
     1
 42
1.0
 92
        0
 66
   257
 43
1.0
 76
     1
 77
     6
 78
     2
 67
     7
 79
     5
170
     0
171
     0
290
     0
174
     0
 93
        1
 44
0.0
173
     0
291
     0
 45
0.0
1001
ACAD
1000
AcDbSavedByObjectVersion
1070
     0
  0
VISUALSTYLE
  5
31
102
{ACAD_XDICTIONARY
360
FF1
102
}
102
{ACAD_REACTORS
330
29
102
}
330
29
100
AcDbVisualStyle
  2
3D Hidden
 70
     6
 71
     1
 72
     2
 73
     2
 90
        0
 40
-0.6
 41
-30.0
 62
     5
 63
     7
 74
     2
 91
        2
 64
     7
 65
   257
 75
     2
175
     1
 42
179.0
 92
        0
 66
   257
 43
1.0
 76
     1
 77
     6
 78
     2
 67
     7
 79
     3
170
     0
171
     0
290
     0
174
     0
 93
        1
 44
0.0
173
     0
291
     0
 45
0.0
1001
ACAD
1000
AcDbSavedByObjectVersion
1070
     0
  0
VISUALSTYLE
  5
30
102
{ACAD_XDICTIONARY
360
FEF
102
}
102
{ACAD_REACTORS
330
29
102
}
330
29
100
AcDbVisualStyle
  2
3dWireframe
 70
     5
 71
     0
 72
     2
 73
     0
 90
        0
 40
-0.6
 41
-30.0
 62
     5
 63
     7
 74
     1
 91
        4
 64
     7
 65
   257
 75
     1
175
     1
 42
1.0
 92
        0
 66
   257
 43
1.0
 76
     1
 77
     6
 78
     2
 67
     7
 79
     5
170
     0
171
     0
290
     0
174
     0
 93
        1
 44
0.0
173
     0
291
     0
 45
0.0
1001
ACAD
1000
AcDbSavedByObjectVersion
1070
     0
  0
VISUALSTYLE
  5
2E
102
{ACAD_XDICTIONARY
360
FEB
102
}
102
{ACAD_REACTORS
330
29
102
}
330
29
100
AcDbVisualStyle
  2
Basic
 70
     7
 71
     1
 72
     0
 73
     1
 90
        0
 40
-0.6
 41
-30.0
 62
     5
 63
     7
 74
     0
 91
        4
 64
     7
 65
   257
 75
     1
175
     1
 42
1.0
 92
        8
 66
     7
 43
1.0
 76
     1
 77
     6
 78
     2
 67
     7
 79
     5
170
     0
171
     0
290
     0
174
     0
 93
        1
 44
0.0
173
     0
291
     1
 45
0.0
1001
ACAD
1000
AcDbSavedByObjectVersion
1070
     0
  0
VISUALSTYLE
  5
35
102
{ACAD_XDICTIONARY
360
FF9
102
}
102
{ACAD_REACTORS
330
29
102
}
330
29
100
AcDbVisualStyle
  2
Brighten
 70
    12
 71
     2
 72
     2
 73
     0
 90
        0
 40
-0.6
 41
-30.0
 62
     5
 63
     7
 74
     1
 91
        4
 64
     7
 65
   257
 75
     1
175
     1
 42
1.0
 92
        8
 66
     7
 43
1.0
 76
     1
 77
     6
 78
     2
 67
     7
 79
     5
170
     0
171
     0
290
     0
174
     0
 93
        1
 44
50.0
173
     0
291
     1
 45
0.0
1001
ACAD
1000
AcDbSavedByObjectVersion
1070
     0
  0
VISUALSTYLE
  5
39
102
{ACAD_XDICTIONARY
360
1001
102
}
102
{ACAD_REACTORS
330
29
102
}
330
29
100
AcDbVisualStyle
  2
ColorChange
 70
    16
 71
     2
 72
     2
 73
     3
 90
        0
 40
-0.6
 41
-30.0
 62
     5
 63
     8
 74
     1
 91
        4
 64
     7
 65
   257
 75
     1
175
     1
 42
1.0
 92
        8
 66
     8
 43
1.0
 76
     1
 77
     6
 78
     2
 67
     7
 79
     5
170
     0
171
     0
290
     0
174
     0
 93
        1
 44
0.0
173
     0
291
     1
 45
0.0
1001
ACAD
1000
AcDbSavedByObjectVersion
1070
     0
  0
VISUALSTYLE
  5
32
102
{ACAD_XDICTIONARY
360
FF3
102
}
102
{ACAD_REACTORS
330
29
102
}
330
29
100
AcDbVisualStyle
  2
Conceptual
 70
     9
 71
     3
 72
     2
 73
     0
 90
        0
 40
-0.6
 41
-30.0
 62
     5
 63
     7
 74
     2
 91
        2
 64
     7
 65
   257
 75
     1
175
     1
 42
179.0
 92
        8
 66
     7
 43
1.0
 76
     1
 77
     6
 78
     2
 67
     7
 79
     3
170
     0
171
     0
290
     0
174
     0
 93
        1
 44
0.0
173
     0
291
     0
 45
0.0
1001
ACAD
1000
AcDbSavedByObjectVersion
1070
     0
  0
VISUALSTYLE
  5
34
102
{ACAD_XDICTIONARY
360
FF7
102
}
102
{ACAD_REACTORS
330
29
102
}
330
29
100
AcDbVisualStyle
  2
Dim
 70
    11
 71
     2
 72
     2
 73
     0
 90
        0
 40
-0.6
 41
-30.0
 62
     5
 63
     7
 74
     1
 91
        4
 64
     7
 65
   257
 75
     1
175
     1
 42
1.0
 92
        8
 66
     7
 43
1.0
 76
     1
 77
     6
 78
     2
 67
     7
 79
     5
170
     0
171
     0
290
     0
174
     0
 93
        1
 44
-50.0
173
     0
291
     1
 45
0.0
1001
ACAD
1000
AcDbSavedByObjectVersion
1070
     0
  0
VISUALSTYLE
  5
3C
102
{ACAD_XDICTIONARY
360
1007
102
}
102
{ACAD_REACTORS
330
29
102
}
330
29
100
AcDbVisualStyle
  2
EdgeColorOff
 70
    22
 71
     2
 72
     2
 73
     0
 90
        0
 40
-0.6
 41
-30.0
 62
     5
 63
     7
 74
     1
 91
        4
 64
     7
 65
   257
 75
     1
175
     1
 42
1.0
 92
        8
 66
     7
 43
1.0
 76
     1
 77
     6
 78
     2
 67
     7
 79
     5
170
     0
171
     0
290
     0
174
     0
 93
        1
 44
0.0
173
     0
291
     1
 45
0.0
1001
ACAD
1000
AcDbSavedByObjectVersion
1070
     0
  0
VISUALSTYLE
  5
38
102
{ACAD_XDICTIONARY
360
FFF
102
}
102
{ACAD_REACTORS
330
29
102
}
330
29
100
AcDbVisualStyle
  2
Facepattern
 70
    15
 71
     2
 72
     2
 73
     0
 90
        0
 40
-0.6
 41
-30.0
 62
     5
 63
     7
 74
     1
 91
        4
 64
     7
 65
   257
 75
     1
175
     1
 42
1.0
 92
        8
 66
     7
 43
1.0
 76
     1
 77
     6
 78
     2
 67
     7
 79
     5
170
     0
171
     0
290
     0
174
     0
 93
        1
 44
0.0
173
     0
291
     1
 45
0.0
1001
ACAD
1000
AcDbSavedByObjectVersion
1070
     0
  0
VISUALSTYLE
  5
2A
102
{ACAD_XDICTIONARY
360
FE3
102
}
102
{ACAD_REACTORS
330
29
102
}
330
29
100
AcDbVisualStyle
  2
Flat
 70
     0
 71
     2
 72
     1
 73
     1
 90
        2
 40
-0.6
 41
30.0
 62
     5
 63
     7
 74
     0
 91
        4
 64
     7
 65
   257
 75
     1
175
     1
 42
1.0
 92
        8
 66
     7
 43
1.0
 76
     1
 77
     6
 78
     2
 67
     7
 79
     5
170
     0
171
     0
290
     0
174
     0
 93
       13
 44
0.0
173
     0
291
     1
 45
0.0
1001
ACAD
1000
AcDbSavedByObjectVersion
1070
     0
  0
VISUALSTYLE
  5
2B
102
{ACAD_XDICTIONARY
360
FE5
102
}
102
{ACAD_REACTORS
330
29
102
}
330
29
100
AcDbVisualStyle
  2
FlatWithEdges
 70
     1
 71
     2
 72
     1
 73
     1
 90
        2
 40
-0.6
 41
30.0
 62
     5
 63
     7
 74
     1
 91
        4
 64
     7
 65
   257
 75
     1
175
     1
 42
1.0
 92
        0
 66
   257
 43
1.0
 76
     1
 77
     6
 78
     2
 67
     7
 79
     5
170
     0
171
     0
290
     0
174
     0
 93
       13
 44
0.0
173
     0
291
     1
 45
0.0
1001
ACAD
1000
AcDbSavedByObjectVersion
1070
     0
  0
VISUALSTYLE
  5
2C
102
{ACAD_XDICTIONARY
360
FE7
102
}
102
{ACAD_REACTORS
330
29
102
}
330
29
100
AcDbVisualStyle
  2
Gouraud
 70
     2
 71
     2
 72
     2
 73
     1
 90
        2
 40
-0.6
 41
30.0
 62
     5
 63
     7
 74
     0
 91
        4
 64
     7
 65
   257
 75
     1
175
     1
 42
1.0
 92
        0
 66
     7
 43
1.0
 76
     1
 77
     6
 78
     2
 67
     7
 79
     5
170
     0
171
     0
290
     0
174
     0
 93
       13
 44
0.0
173
     0
291
     1
 45
0.0
1001
ACAD
1000
AcDbSavedByObjectVersion
1070
     0
  0
VISUALSTYLE
  5
2D
102
{ACAD_XDICTIONARY
360
FE9
102
}
102
{ACAD_REACTORS
330
29
102
}
330
29
100
AcDbVisualStyle
  2
GouraudWithEdges
 70
     3
 71
     2
 72
     2
 73
     1
 90
        2
 40
-0.6
 41
30.0
 62
     5
 63
     7
 74
     1
 91
        4
 64
     7
 65
   257
 75
     1
175
     1
 42
1.0
 92
        0
 66
   257
 43
1.0
 76
     1
 77
     6
 78
     2
 67
     7
 79
     5
170
     0
171
     0
290
     0
174
     0
 93
       13
 44
0.0
173
     0
291
     1
 45
0.0
1001
ACAD
1000
AcDbSavedByObjectVersion
1070
     0
  0
VISUALSTYLE
  5
3A
102
{ACAD_XDICTIONARY
360
1003
102
}
102
{ACAD_REACTORS
330
29
102
}
330
29
100
AcDbVisualStyle
  2
JitterOff
 70
    20
 71
     2
 72
     2
 73
     0
 90
        0
 40
-0.6
 41
-30.0
 62
     5
 63
     7
 74
     1
 91
        4
 64
     7
 65
   257
 75
     1
175
     1
 42
1.0
 92
       10
 66
     7
 43
1.0
 76
     1
 77
     6
 78
     2
 67
     7
 79
     5
170
     0
171
     0
290
     0
174
     0
 93
        1
 44
0.0
173
     0
291
     1
 45
0.0
1001
ACAD
1000
AcDbSavedByObjectVersion
1070
     0
  0
VISUALSTYLE
  5
37
102
{ACAD_XDICTIONARY
360
FFD
102
}
102
{ACAD_REACTORS
330
29
102
}
330
29
100
AcDbVisualStyle
  2
Linepattern
 70
    14
 71
     2
 72
     2
 73
     0
 90
        0
 40
-0.6
 41
-30.0
 62
     5
 63
     7
 74
     1
 91
        4
 64
     7
 65
   257
 75
     7
175
     7
 42
1.0
 92
        8
 66
     7
 43
1.0
 76
     1
 77
     6
 78
     2
 67
     7
 79
     5
170
     0
171
     0
290
     0
174
     0
 93
        1
 44
0.0
173
     0
291
     1
 45
0.0
1001
ACAD
1000
AcDbSavedByObjectVersion
1070
     0
  0
VISUALSTYLE
  5
3B
102
{ACAD_XDICTIONARY
360
1005
102
}
102
{ACAD_REACTORS
330
29
102
}
330
29
100
AcDbVisualStyle
  2
OverhangOff
 70
    21
 71
     2
 72
     2
 73
     0
 90
        0
 40
-0.6
 41
-30.0
 62
     5
 63
     7
 74
     1
 91
        4
 64
     7
 65
   257
 75
     1
175
     1
 42
1.0
 92
        9
 66
     7
 43
1.0
 76
     1
 77
     6
 78
     2
 67
     7
 79
     5
170
     0
171
     0
290
     0
174
     0
 93
        1
 44
0.0
173
     0
291
     1
 45
0.0
1001
ACAD
1000
AcDbSavedByObjectVersion
1070
     0
  0
VISUALSTYLE
  5
33
102
{ACAD_XDICTIONARY
360
FF5
102
}
102
{ACAD_REACTORS
330
29
102
}
330
29
100
AcDbVisualStyle
  2
Realistic
 70
     8
 71
     2
 72
     2
 73
     0
 90
        0
 40
-0.6
 41
-30.0
 62
     5
 63
     7
 74
     1
 91
        0
 64
     7
 65
   257
 75
     1
175
     1
 42
1.0
 92
        8
 66
     8
 43
1.0
 76
     1
 77
     6
 78
     2
 67
     7
 79
     5
170
     0
171
     0
290
     0
174
     0
 93
       13
 44
0.0
173
     0
291
     0
 45
0.0
1001
ACAD
1000
AcDbSavedByObjectVersion
1070
     0
  0
VISUALSTYLE
  5
36
102
{ACAD_XDICTIONARY
360
FFB
102
}
102
{ACAD_REACTORS
330
29
102
}
330
29
100
AcDbVisualStyle
  2
Thicken
 70
    13
 71
     2
 72
     2
 73
     0
 90
        0
 40
-0.6
 41
-30.0
 62
     5
 63
     7
 74
     1
 91
        4
 64
     7
 65
   257
 75
     1
175
     1
 42
1.0
 92
       12
 66
     7
 43
1.0
 76
     1
 77
     6
 78
     2
 67
     7
 79
     5
170
     0
171
     0
290
     0
174
     0
 93
        1
 44
0.0
173
     0
291
     1
 45
0.0
1001
ACAD
1000
AcDbSavedByObjectVersion
1070
     0
  0
DICTIONARYVAR
  5
82
102
{ACAD_REACTORS
330
7F
102
}
330
7F
100
DictionaryVariables
280
     0
  1
1:1
  0
DICTIONARYVAR
  5
81
102
{ACAD_REACTORS
330
7F
102
}
330
7F
100
DictionaryVariables
280
     0
  1
STANDARD
  0
DICTIONARYVAR
  5
80
102
{ACAD_REACTORS
330
7F
102
}
330
7F
100
DictionaryVariables
280
     0
  1
STANDARD
  0
DICTIONARYVAR
  5
FD4
102
{ACAD_REACTORS
330
7F
102
}
330
7F
100
DictionaryVariables
280
     0
  1
1
  0
DICTIONARYVAR
  5
FD3
102
{ACAD_REACTORS
330
7F
102
}
330
7F
100
DictionaryVariables
280
     0
  1
1
  0
DICTIONARYVAR
  5
FD2
102
{ACAD_REACTORS
330
7F
102
}
330
7F
100
DictionaryVariables
280
     0
  1
0
  0
DICTIONARYVAR
  5
FCF
102
{ACAD_REACTORS
330
7F
102
}
330
7F
100
DictionaryVariables
280
     0
  1
0
  0
DICTIONARYVAR
  5
FD0
102
{ACAD_REACTORS
330
7F
102
}
330
7F
100
DictionaryVariables
280
     0
  1
0
  0
DICTIONARYVAR
  5
FCE
102
{ACAD_REACTORS
330
7F
102
}
330
7F
100
DictionaryVariables
280
     0
  1
2
  0
DICTIONARYVAR
  5
FCD
102
{ACAD_REACTORS
330
7F
102
}
330
7F
100
DictionaryVariables
280
     0
  1
1
  0
DICTIONARYVAR
  5
FD1
102
{ACAD_REACTORS
330
7F
102
}
330
7F
100
DictionaryVariables
280
     0
  1
127
  0
DICTIONARYVAR
  5
FD5
102
{ACAD_REACTORS
330
7F
102
}
330
7F
100
DictionaryVariables
280
     0
  1
2
  0
DICTIONARY
  5
100B
330
76
100
AcDbDictionary
280
     1
281
     1
  3
ACAD_XREC_ROUNDTRIP
360
100C
  0
DICTIONARY
  5
100F
330
7E
100
AcDbDictionary
280
     1
281
     1
  3
ACAD_XREC_ROUNDTRIP
360
1010
  0
DICTIONARY
  5
100D
330
7A
100
AcDbDictionary
280
     1
281
     1
  3
ACAD_XREC_ROUNDTRIP
360
100E
  0
DICTIONARY
  5
1A
330
19
100
AcDbDictionary
280
     1
281
     1
  3
ACAD_XREC_ROUNDTRIP
360
FE1
  3
BUMPTILE
360
1C
  3
DIFFUSETILE
360
1B
  3
OPACITYTILE
360
1F
  3
REFLECTIONTILE
360
1E
  3
REFRACTIONTILE
360
20
  3
SPECULARTILE
360
1D
  0
DICTIONARY
  5
12
330
11
100
AcDbDictionary
280
     1
281
     1
  3
ACAD_XREC_ROUNDTRIP
360
FE0
  3
BUMPTILE
360
14
  3
DIFFUSETILE
360
13
  3
OPACITYTILE
360
17
  3
REFLECTIONTILE
360
16
  3
REFRACTIONTILE
360
18
  3
SPECULARTILE
360
15
  0
DICTIONARY
  5
22
330
21
100
AcDbDictionary
280
     1
281
     1
  3
ACAD_XREC_ROUNDTRIP
360
FE2
  3
BUMPTILE
360
24
  3
DIFFUSETILE
360
23
  3
OPACITYTILE
360
27
  3
REFLECTIONTILE
360
26
  3
REFRACTIONTILE
360
28
  3
SPECULARTILE
360
25
  0
DICTIONARY
  5
FD6
330
70
100
AcDbDictionary
280
     1
281
     1
  3
ACAD_ROUNDTRIP_2008_TABLESTYLE_CELLSTYLEMAP
360
FD7
  3
ACAD_XREC_ROUNDTRIP
360
1009
  0
DICTIONARY
  5
FED
330
2F
100
AcDbDictionary
280
     1
281
     1
  3
ACAD_XREC_ROUNDTRIP
360
FEE
  0
DICTIONARY
  5
FF1
330
31
100
AcDbDictionary
280
     1
281
     1
  3
ACAD_XREC_ROUNDTRIP
360
FF2
  0
DICTIONARY
  5
FEF
330
30
100
AcDbDictionary
280
     1
281
     1
  3
ACAD_XREC_ROUNDTRIP
360
FF0
  0
DICTIONARY
  5
FEB
330
2E
100
AcDbDictionary
280
     1
281
     1
  3
ACAD_XREC_ROUNDTRIP
360
FEC
  0
DICTIONARY
  5
FF9
330
35
100
AcDbDictionary
280
     1
281
     1
  3
ACAD_XREC_ROUNDTRIP
360
FFA
  0
DICTIONARY
  5
1001
330
39
100
AcDbDictionary
280
     1
281
     1
  3
ACAD_XREC_ROUNDTRIP
360
1002
  0
DICTIONARY
  5
FF3
330
32
100
AcDbDictionary
280
     1
281
     1
  3
ACAD_XREC_ROUNDTRIP
360
FF4
  0
DICTIONARY
  5
FF7
330
34
100
AcDbDictionary
280
     1
281
     1
  3
ACAD_XREC_ROUNDTRIP
360
FF8
  0
DICTIONARY
  5
1007
330
3C
100
AcDbDictionary
280
     1
281
     1
  3
ACAD_XREC_ROUNDTRIP
360
1008
  0
DICTIONARY
  5
FFF
330
38
100
AcDbDictionary
280
     1
281
     1
  3
ACAD_XREC_ROUNDTRIP
360
1000
  0
DICTIONARY
  5
FE3
330
2A
100
AcDbDictionary
280
     1
281
     1
  3
ACAD_XREC_ROUNDTRIP
360
FE4
  0
DICTIONARY
  5
FE5
330
2B
100
AcDbDictionary
280
     1
281
     1
  3
ACAD_XREC_ROUNDTRIP
360
FE6
  0
DICTIONARY
  5
FE7
330
2C
100
AcDbDictionary
280
     1
281
     1
  3
ACAD_XREC_ROUNDTRIP
360
FE8
  0
DICTIONARY
  5
FE9
330
2D
100
AcDbDictionary
280
     1
281
     1
  3
ACAD_XREC_ROUNDTRIP
360
FEA
  0
DICTIONARY
  5
1003
330
3A
100
AcDbDictionary
280
     1
281
     1
  3
ACAD_XREC_ROUNDTRIP
360
1004
  0
DICTIONARY
  5
FFD
330
37
100
AcDbDictionary
280
     1
281
     1
  3
ACAD_XREC_ROUNDTRIP
360
FFE
  0
DICTIONARY
  5
1005
330
3B
100
AcDbDictionary
280
     1
281
     1
  3
ACAD_XREC_ROUNDTRIP
360
1006
  0
DICTIONARY
  5
FF5
330
33
100
AcDbDictionary
280
     1
281
     1
  3
ACAD_XREC_ROUNDTRIP
360
FF6
  0
DICTIONARY
  5
FFB
330
36
100
AcDbDictionary
280
     1
281
     1
  3
ACAD_XREC_ROUNDTRIP
360
FFC
  0
XRECORD
  5
100C
102
{ACAD_REACTORS
330
100B
102
}
330
100B
100
AcDbXrecord
280
     1
102
SHADEPLOT
 70
     0
102
SHADEPLOTRESLEVEL
 70
     2
102
SHADEPLOTCUSTOMDPI
 70
   300
  0
XRECORD
  5
1010
102
{ACAD_REACTORS
330
100F
102
}
330
100F
100
AcDbXrecord
280
     1
102
SHADEPLOT
 70
     0
102
SHADEPLOTRESLEVEL
 70
     2
102
SHADEPLOTCUSTOMDPI
 70
   300
  0
XRECORD
  5
100E
102
{ACAD_REACTORS
330
100D
102
}
330
100D
100
AcDbXrecord
280
     1
102
SHADEPLOT
 70
     0
102
SHADEPLOTRESLEVEL
 70
     2
102
SHADEPLOTCUSTOMDPI
 70
   300
  0
XRECORD
  5
FE1
102
{ACAD_REACTORS
330
1A
102
}
330
1A
100
AcDbXrecord
280
     1
102
MATERIAL
148
0.0
149
0.0
149
0.0
 93
        0
 94
      127
282
     0
 72
     0
 77
     0
171
     0
175
     0
179
     0
273
     0
  0
XRECORD
  5
1C
102
{ACAD_REACTORS
330
1A
102
}
330
1A
100
AcDbXrecord
280
     1
270
     1
271
     1
  0
XRECORD
  5
1B
102
{ACAD_REACTORS
330
1A
102
}
330
1A
100
AcDbXrecord
280
     1
270
     1
271
     1
  0
XRECORD
  5
1F
102
{ACAD_REACTORS
330
1A
102
}
330
1A
100
AcDbXrecord
280
     1
270
     1
271
     1
  0
XRECORD
  5
1E
102
{ACAD_REACTORS
330
1A
102
}
330
1A
100
AcDbXrecord
280
     1
270
     1
271
     1
  0
XRECORD
  5
20
102
{ACAD_REACTORS
330
1A
102
}
330
1A
100
AcDbXrecord
280
     1
270
     1
271
     1
  0
XRECORD
  5
1D
102
{ACAD_REACTORS
330
1A
102
}
330
1A
100
AcDbXrecord
280
     1
270
     1
271
     1
  0
XRECORD
  5
FE0
102
{ACAD_REACTORS
330
12
102
}
330
12
100
AcDbXrecord
280
     1
102
MATERIAL
148
0.0
149
0.0
149
0.0
 93
        0
 94
      127
282
     0
 72
     0
 77
     0
171
     0
175
     0
179
     0
273
     0
  0
XRECORD
  5
14
102
{ACAD_REACTORS
330
12
102
}
330
12
100
AcDbXrecord
280
     1
270
     1
271
     1
  0
XRECORD
  5
13
102
{ACAD_REACTORS
330
12
102
}
330
12
100
AcDbXrecord
280
     1
270
     1
271
     1
  0
XRECORD
  5
17
102
{ACAD_REACTORS
330
12
102
}
330
12
100
AcDbXrecord
280
     1
270
     1
271
     1
  0
XRECORD
  5
16
102
{ACAD_REACTORS
330
12
102
}
330
12
100
AcDbXrecord
280
     1
270
     1
271
     1
  0
XRECORD
  5
18
102
{ACAD_REACTORS
330
12
102
}
330
12
100
AcDbXrecord
280
     1
270
     1
271
     1
  0
XRECORD
  5
15
102
{ACAD_REACTORS
330
12
102
}
330
12
100
AcDbXrecord
280
     1
270
     1
271
     1
  0
XRECORD
  5
FE2
102
{ACAD_REACTORS
330
22
102
}
330
22
100
AcDbXrecord
280
     1
102
MATERIAL
148
0.0
149
0.0
149
0.0
 93
        0
 94
      127
282
     0
 72
     0
 77
     0
171
     0
175
     0
179
     0
273
     0
  0
XRECORD
  5
24
102
{ACAD_REACTORS
330
22
102
}
330
22
100
AcDbXrecord
280
     1
270
     1
271
     1
  0
XRECORD
  5
23
102
{ACAD_REACTORS
330
22
102
}
330
22
100
AcDbXrecord
280
     1
270
     1
271
     1
  0
XRECORD
  5
27
102
{ACAD_REACTORS
330
22
102
}
330
22
100
AcDbXrecord
280
     1
270
     1
271
     1
  0
XRECORD
  5
26
102
{ACAD_REACTORS
330
22
102
}
330
22
100
AcDbXrecord
280
     1
270
     1
271
     1
  0
XRECORD
  5
28
102
{ACAD_REACTORS
330
22
102
}
330
22
100
AcDbXrecord
280
     1
270
     1
271
     1
  0
XRECORD
  5
25
102
{ACAD_REACTORS
330
22
102
}
330
22
100
AcDbXrecord
280
     1
270
     1
271
     1
  0
CELLSTYLEMAP
  5
FD7
102
{ACAD_REACTORS
330
FD6
102
}
330
FD6
100
AcDbCellStyleMap
 90
        3
300
CELLSTYLE
  1
TABLEFORMAT_BEGIN
 90
        5
170
     1
 91
        0
 92
    32768
 62
   257
 93
        1
300
CONTENTFORMAT
  1
CONTENTFORMAT_BEGIN
 90
        0
 91
        0
 92
      512
 93
        0
300

 40
0.0
140
1.0
 94
        5
 62
     0
340
60
144
0.25
309
CONTENTFORMAT_END
171
     0
 94
        0
309
TABLEFORMAT_END
  1
CELLSTYLE_BEGIN
 90
        1
 91
        1
300
_TITLE
309
CELLSTYLE_END
300
CELLSTYLE
  1
TABLEFORMAT_BEGIN
 90
        5
170
     1
 91
        0
 92
        0
 62
   257
 93
        1
300
CONTENTFORMAT
  1
CONTENTFORMAT_BEGIN
 90
        0
 91
        0
 92
      512
 93
        0
300

 40
0.0
140
1.0
 94
        5
 62
     0
340
60
144
0.18
309
CONTENTFORMAT_END
171
     0
 94
        0
309
TABLEFORMAT_END
  1
CELLSTYLE_BEGIN
 90
        2
 91
        1
300
_HEADER
309
CELLSTYLE_END
300
CELLSTYLE
  1
TABLEFORMAT_BEGIN
 90
        5
170
     1
 91
        0
 92
        0
 62
   257
 93
        1
300
CONTENTFORMAT
  1
CONTENTFORMAT_BEGIN
 90
        0
 91
        0
 92
      512
 93
        0
300

 40
0.0
140
1.0
 94
        2
 62
     0
340
60
144
0.18
309
CONTENTFORMAT_END
171
     0
 94
        0
309
TABLEFORMAT_END
  1
CELLSTYLE_BEGIN
 90
        3
 91
        2
300
_DATA
309
CELLSTYLE_END
  0
XRECORD
  5
1009
102
{ACAD_REACTORS
330
FD6
102
}
330
FD6
100
AcDbXrecord
280
     1
102
ACAD_ROUNDTRIP_PRE2007_TABLESTYLE
 90
      512
 91
        0
  1

 92
      512
 93
        0
  2

 94
      512
 95
        0
  3

  0
XRECORD
  5
FEE
102
{ACAD_REACTORS
330
FED
102
}
330
FED
100
AcDbXrecord
280
     1
102
RTVSPropertyOp0
 70
     1
102
RTVSPropertyOp1
 70
     1
102
RTVSPropertyOp2
 70
     1
102
RTVSPropertyOp3
 70
     1
102
RTVSPropertyOp4
 70
     1
102
RTVSPropertyOp5
 70
     1
102
RTVSPropertyOp6
 70
     1
102
RTVSPropertyOp7
 70
     1
102
RTVSPropertyOp8
 70
     1
102
RTVSPropertyOp9
 70
     1
102
RTVSPropertyOp10
 70
     1
102
RTVSPropertyOp11
 70
     1
102
RTVSPropertyOp12
 70
     1
102
RTVSPropertyOp13
 70
     1
102
RTVSPropertyOp14
 70
     1
102
RTVSPropertyOp15
 70
     1
102
RTVSPropertyOp16
 70
     1
102
RTVSPropertyOp17
 70
     1
102
RTVSPropertyOp18
 70
     1
102
RTVSPropertyOp19
 70
     1
102
RTVSPropertyOp20
 70
     1
102
RTVSPropertyOp21
 70
     1
102
RTVSPropertyOp22
 70
     1
102
RTVSPropertyOp23
 70
     1
102
RTVSPropertyOp24
 70
     1
102
RTVSPropertyOp25
 70
     1
102
RTVSPropertyOp26
 70
     1
102
RTVSPropertyOp27
 70
     1
  0
XRECORD
  5
FF2
102
{ACAD_REACTORS
330
FF1
102
}
330
FF1
100
AcDbXrecord
280
     1
102
RTVSPropertyOp0
 70
     1
102
RTVSPropertyOp1
 70
     1
102
RTVSPropertyOp2
 70
     1
102
RTVSPropertyOp3
 70
     1
102
RTVSPropertyOp4
 70
     1
102
RTVSPropertyOp5
 70
     1
102
RTVSPropertyOp6
 70
     1
102
RTVSPropertyOp7
 70
     1
102
RTVSPropertyOp8
 70
     1
102
RTVSPropertyOp9
 70
     1
102
RTVSPropertyOp10
 70
     1
102
RTVSPropertyOp11
 70
     1
102
RTVSPropertyOp12
 70
     1
102
RTVSPropertyOp13
 70
     1
102
RTVSPropertyOp14
 70
     1
102
RTVSPropertyOp15
 70
     1
102
RTVSPropertyOp16
 70
     1
102
RTVSPropertyOp17
 70
     1
102
RTVSPropertyOp18
 70
     1
102
RTVSPropertyOp19
 70
     1
102
RTVSPropertyOp20
 70
     1
102
RTVSPropertyOp21
 70
     1
102
RTVSPropertyOp22
 70
     1
102
RTVSPropertyOp23
 70
     1
102
RTVSPropertyOp24
 70
     1
102
RTVSPropertyOp25
 70
     1
102
RTVSPropertyOp26
 70
     1
102
RTVSPropertyOp27
 70
     1
  0
XRECORD
  5
FF0
102
{ACAD_REACTORS
330
FEF
102
}
330
FEF
100
AcDbXrecord
280
     1
102
RTVSPropertyOp0
 70
     1
102
RTVSPropertyOp1
 70
     1
102
RTVSPropertyOp2
 70
     1
102
RTVSPropertyOp3
 70
     1
102
RTVSPropertyOp4
 70
     1
102
RTVSPropertyOp5
 70
     1
102
RTVSPropertyOp6
 70
     1
102
RTVSPropertyOp7
 70
     1
102
RTVSPropertyOp8
 70
     1
102
RTVSPropertyOp9
 70
     1
102
RTVSPropertyOp10
 70
     1
102
RTVSPropertyOp11
 70
     1
102
RTVSPropertyOp12
 70
     1
102
RTVSPropertyOp13
 70
     1
102
RTVSPropertyOp14
 70
     1
102
RTVSPropertyOp15
 70
     1
102
RTVSPropertyOp16
 70
     1
102
RTVSPropertyOp17
 70
     1
102
RTVSPropertyOp18
 70
     1
102
RTVSPropertyOp19
 70
     1
102
RTVSPropertyOp20
 70
     1
102
RTVSPropertyOp21
 70
     1
102
RTVSPropertyOp22
 70
     1
102
RTVSPropertyOp23
 70
     1
102
RTVSPropertyOp24
 70
     1
102
RTVSPropertyOp25
 70
     1
102
RTVSPropertyOp26
 70
     1
102
RTVSPropertyOp27
 70
     1
  0
XRECORD
  5
FEC
102
{ACAD_REACTORS
330
FEB
102
}
330
FEB
100
AcDbXrecord
280
     1
102
RTVSPropertyOp0
 70
     1
102
RTVSPropertyOp1
 70
     1
102
RTVSPropertyOp2
 70
     1
102
RTVSPropertyOp3
 70
     1
102
RTVSPropertyOp4
 70
     1
102
RTVSPropertyOp5
 70
     1
102
RTVSPropertyOp6
 70
     1
102
RTVSPropertyOp7
 70
     1
102
RTVSPropertyOp8
 70
     1
102
RTVSPropertyOp9
 70
     1
102
RTVSPropertyOp10
 70
     1
102
RTVSPropertyOp11
 70
     1
102
RTVSPropertyOp12
 70
     1
102
RTVSPropertyOp13
 70
     1
102
RTVSPropertyOp14
 70
     1
102
RTVSPropertyOp15
 70
     1
102
RTVSPropertyOp16
 70
     1
102
RTVSPropertyOp17
 70
     1
102
RTVSPropertyOp18
 70
     1
102
RTVSPropertyOp19
 70
     1
102
RTVSPropertyOp20
 70
     1
102
RTVSPropertyOp21
 70
     1
102
RTVSPropertyOp22
 70
     1
102
RTVSPropertyOp23
 70
     1
102
RTVSPropertyOp24
 70
     1
102
RTVSPropertyOp25
 70
     1
102
RTVSPropertyOp26
 70
     1
102
RTVSPropertyOp27
 70
     1
  0
XRECORD
  5
FFA
102
{ACAD_REACTORS
330
FF9
102
}
330
FF9
100
AcDbXrecord
280
     1
102
RTVSPropertyOp0
 70
     1
102
RTVSPropertyOp1
 70
     1
102
RTVSPropertyOp2
 70
     1
102
RTVSPropertyOp3
 70
     1
102
RTVSPropertyOp4
 70
     1
102
RTVSPropertyOp5
 70
     1
102
RTVSPropertyOp6
 70
     1
102
RTVSPropertyOp7
 70
     1
102
RTVSPropertyOp8
 70
     1
102
RTVSPropertyOp9
 70
     1
102
RTVSPropertyOp10
 70
     1
102
RTVSPropertyOp11
 70
     1
102
RTVSPropertyOp12
 70
     1
102
RTVSPropertyOp13
 70
     1
102
RTVSPropertyOp14
 70
     1
102
RTVSPropertyOp15
 70
     1
102
RTVSPropertyOp16
 70
     1
102
RTVSPropertyOp17
 70
     1
102
RTVSPropertyOp18
 70
     1
102
RTVSPropertyOp19
 70
     1
102
RTVSPropertyOp20
 70
     1
102
RTVSPropertyOp21
 70
     1
102
RTVSPropertyOp22
 70
     1
102
RTVSPropertyOp23
 70
     1
102
RTVSPropertyOp24
 70
     1
102
RTVSPropertyOp25
 70
     1
102
RTVSPropertyOp26
 70
     1
102
RTVSPropertyOp27
 70
     1
  0
XRECORD
  5
1002
102
{ACAD_REACTORS
330
1001
102
}
330
1001
100
AcDbXrecord
280
     1
102
RTVSPropertyOp0
 70
     1
102
RTVSPropertyOp1
 70
     1
102
RTVSPropertyOp2
 70
     1
102
RTVSPropertyOp3
 70
     1
102
RTVSPropertyOp4
 70
     1
102
RTVSPropertyOp5
 70
     1
102
RTVSPropertyOp6
 70
     1
102
RTVSPropertyOp7
 70
     1
102
RTVSPropertyOp8
 70
     1
102
RTVSPropertyOp9
 70
     1
102
RTVSPropertyOp10
 70
     1
102
RTVSPropertyOp11
 70
     1
102
RTVSPropertyOp12
 70
     1
102
RTVSPropertyOp13
 70
     1
102
RTVSPropertyOp14
 70
     1
102
RTVSPropertyOp15
 70
     1
102
RTVSPropertyOp16
 70
     1
102
RTVSPropertyOp17
 70
     1
102
RTVSPropertyOp18
 70
     1
102
RTVSPropertyOp19
 70
     1
102
RTVSPropertyOp20
 70
     1
102
RTVSPropertyOp21
 70
     1
102
RTVSPropertyOp22
 70
     1
102
RTVSPropertyOp23
 70
     1
102
RTVSPropertyOp24
 70
     1
102
RTVSPropertyOp25
 70
     1
102
RTVSPropertyOp26
 70
     1
102
RTVSPropertyOp27
 70
     1
  0
XRECORD
  5
FF4
102
{ACAD_REACTORS
330
FF3
102
}
330
FF3
100
AcDbXrecord
280
     1
102
RTVSPropertyOp0
 70
     1
102
RTVSPropertyOp1
 70
     1
102
RTVSPropertyOp2
 70
     1
102
RTVSPropertyOp3
 70
     1
102
RTVSPropertyOp4
 70
     1
102
RTVSPropertyOp5
 70
     1
102
RTVSPropertyOp6
 70
     1
102
RTVSPropertyOp7
 70
     1
102
RTVSPropertyOp8
 70
     1
102
RTVSPropertyOp9
 70
     1
102
RTVSPropertyOp10
 70
     1
102
RTVSPropertyOp11
 70
     1
102
RTVSPropertyOp12
 70
     1
102
RTVSPropertyOp13
 70
     1
102
RTVSPropertyOp14
 70
     1
102
RTVSPropertyOp15
 70
     1
102
RTVSPropertyOp16
 70
     1
102
RTVSPropertyOp17
 70
     1
102
RTVSPropertyOp18
 70
     1
102
RTVSPropertyOp19
 70
     1
102
RTVSPropertyOp20
 70
     1
102
RTVSPropertyOp21
 70
     1
102
RTVSPropertyOp22
 70
     1
102
RTVSPropertyOp23
 70
     1
102
RTVSPropertyOp24
 70
     1
102
RTVSPropertyOp25
 70
     1
102
RTVSPropertyOp26
 70
     1
102
RTVSPropertyOp27
 70
     1
  0
XRECORD
  5
FF8
102
{ACAD_REACTORS
330
FF7
102
}
330
FF7
100
AcDbXrecord
280
     1
102
RTVSPropertyOp0
 70
     1
102
RTVSPropertyOp1
 70
     1
102
RTVSPropertyOp2
 70
     1
102
RTVSPropertyOp3
 70
     1
102
RTVSPropertyOp4
 70
     1
102
RTVSPropertyOp5
 70
     1
102
RTVSPropertyOp6
 70
     1
102
RTVSPropertyOp7
 70
     1
102
RTVSPropertyOp8
 70
     1
102
RTVSPropertyOp9
 70
     1
102
RTVSPropertyOp10
 70
     1
102
RTVSPropertyOp11
 70
     1
102
RTVSPropertyOp12
 70
     1
102
RTVSPropertyOp13
 70
     1
102
RTVSPropertyOp14
 70
     1
102
RTVSPropertyOp15
 70
     1
102
RTVSPropertyOp16
 70
     1
102
RTVSPropertyOp17
 70
     1
102
RTVSPropertyOp18
 70
     1
102
RTVSPropertyOp19
 70
     1
102
RTVSPropertyOp20
 70
     1
102
RTVSPropertyOp21
 70
     1
102
RTVSPropertyOp22
 70
     1
102
RTVSPropertyOp23
 70
     1
102
RTVSPropertyOp24
 70
     1
102
RTVSPropertyOp25
 70
     1
102
RTVSPropertyOp26
 70
     1
102
RTVSPropertyOp27
 70
     1
  0
XRECORD
  5
1008
102
{ACAD_REACTORS
330
1007
102
}
330
1007
100
AcDbXrecord
280
     1
102
RTVSPropertyOp0
 70
     0
102
RTVSPropertyOp1
 70
     0
102
RTVSPropertyOp2
 70
     0
102
RTVSPropertyOp3
 70
     0
102
RTVSPropertyOp4
 70
     0
102
RTVSPropertyOp5
 70
     0
102
RTVSPropertyOp6
 70
     0
102
RTVSPropertyOp7
 70
     0
102
RTVSPropertyOp8
 70
     0
102
RTVSPropertyOp9
 70
     0
102
RTVSPropertyOp10
 70
     0
102
RTVSPropertyOp11
 70
     0
102
RTVSPropertyOp12
 70
     0
102
RTVSPropertyOp13
 70
     0
102
RTVSPropertyOp14
 70
     2
102
RTVSPropertyOp15
 70
     0
102
RTVSPropertyOp16
 70
     0
102
RTVSPropertyOp17
 70
     0
102
RTVSPropertyOp18
 70
     0
102
RTVSPropertyOp19
 70
     0
102
RTVSPropertyOp20
 70
     0
102
RTVSPropertyOp21
 70
     0
102
RTVSPropertyOp22
 70
     0
102
RTVSPropertyOp23
 70
     0
102
RTVSPropertyOp24
 70
     0
102
RTVSPropertyOp25
 70
     0
102
RTVSPropertyOp26
 70
     0
102
RTVSPropertyOp27
 70
     0
  0
XRECORD
  5
1000
102
{ACAD_REACTORS
330
FFF
102
}
330
FFF
100
AcDbXrecord
280
     1
102
RTVSPropertyOp0
 70
     1
102
RTVSPropertyOp1
 70
     1
102
RTVSPropertyOp2
 70
     1
102
RTVSPropertyOp3
 70
     1
102
RTVSPropertyOp4
 70
     1
102
RTVSPropertyOp5
 70
     1
102
RTVSPropertyOp6
 70
     1
102
RTVSPropertyOp7
 70
     1
102
RTVSPropertyOp8
 70
     1
102
RTVSPropertyOp9
 70
     1
102
RTVSPropertyOp10
 70
     1
102
RTVSPropertyOp11
 70
     1
102
RTVSPropertyOp12
 70
     1
102
RTVSPropertyOp13
 70
     1
102
RTVSPropertyOp14
 70
     1
102
RTVSPropertyOp15
 70
     1
102
RTVSPropertyOp16
 70
     1
102
RTVSPropertyOp17
 70
     1
102
RTVSPropertyOp18
 70
     1
102
RTVSPropertyOp19
 70
     1
102
RTVSPropertyOp20
 70
     1
102
RTVSPropertyOp21
 70
     1
102
RTVSPropertyOp22
 70
     1
102
RTVSPropertyOp23
 70
     1
102
RTVSPropertyOp24
 70
     1
102
RTVSPropertyOp25
 70
     1
102
RTVSPropertyOp26
 70
     1
102
RTVSPropertyOp27
 70
     1
  0
XRECORD
  5
FE4
102
{ACAD_REACTORS
330
FE3
102
}
330
FE3
100
AcDbXrecord
280
     1
102
RTVSPropertyOp0
 70
     1
102
RTVSPropertyOp1
 70
     1
102
RTVSPropertyOp2
 70
     1
102
RTVSPropertyOp3
 70
     1
102
RTVSPropertyOp4
 70
     1
102
RTVSPropertyOp5
 70
     1
102
RTVSPropertyOp6
 70
     1
102
RTVSPropertyOp7
 70
     1
102
RTVSPropertyOp8
 70
     1
102
RTVSPropertyOp9
 70
     1
102
RTVSPropertyOp10
 70
     1
102
RTVSPropertyOp11
 70
     1
102
RTVSPropertyOp12
 70
     1
102
RTVSPropertyOp13
 70
     1
102
RTVSPropertyOp14
 70
     1
102
RTVSPropertyOp15
 70
     1
102
RTVSPropertyOp16
 70
     1
102
RTVSPropertyOp17
 70
     1
102
RTVSPropertyOp18
 70
     1
102
RTVSPropertyOp19
 70
     1
102
RTVSPropertyOp20
 70
     1
102
RTVSPropertyOp21
 70
     1
102
RTVSPropertyOp22
 70
     1
102
RTVSPropertyOp23
 70
     1
102
RTVSPropertyOp24
 70
     1
102
RTVSPropertyOp25
 70
     1
102
RTVSPropertyOp26
 70
     1
102
RTVSPropertyOp27
 70
     1
  0
XRECORD
  5
FE6
102
{ACAD_REACTORS
330
FE5
102
}
330
FE5
100
AcDbXrecord
280
     1
102
RTVSPropertyOp0
 70
     1
102
RTVSPropertyOp1
 70
     1
102
RTVSPropertyOp2
 70
     1
102
RTVSPropertyOp3
 70
     1
102
RTVSPropertyOp4
 70
     1
102
RTVSPropertyOp5
 70
     1
102
RTVSPropertyOp6
 70
     1
102
RTVSPropertyOp7
 70
     1
102
RTVSPropertyOp8
 70
     1
102
RTVSPropertyOp9
 70
     1
102
RTVSPropertyOp10
 70
     1
102
RTVSPropertyOp11
 70
     1
102
RTVSPropertyOp12
 70
     1
102
RTVSPropertyOp13
 70
     1
102
RTVSPropertyOp14
 70
     1
102
RTVSPropertyOp15
 70
     1
102
RTVSPropertyOp16
 70
     1
102
RTVSPropertyOp17
 70
     1
102
RTVSPropertyOp18
 70
     1
102
RTVSPropertyOp19
 70
     1
102
RTVSPropertyOp20
 70
     1
102
RTVSPropertyOp21
 70
     1
102
RTVSPropertyOp22
 70
     1
102
RTVSPropertyOp23
 70
     1
102
RTVSPropertyOp24
 70
     1
102
RTVSPropertyOp25
 70
     1
102
RTVSPropertyOp26
 70
     1
102
RTVSPropertyOp27
 70
     1
  0
XRECORD
  5
FE8
102
{ACAD_REACTORS
330
FE7
102
}
330
FE7
100
AcDbXrecord
280
     1
102
RTVSPropertyOp0
 70
     1
102
RTVSPropertyOp1
 70
     1
102
RTVSPropertyOp2
 70
     1
102
RTVSPropertyOp3
 70
     1
102
RTVSPropertyOp4
 70
     1
102
RTVSPropertyOp5
 70
     1
102
RTVSPropertyOp6
 70
     1
102
RTVSPropertyOp7
 70
     1
102
RTVSPropertyOp8
 70
     1
102
RTVSPropertyOp9
 70
     1
102
RTVSPropertyOp10
 70
     1
102
RTVSPropertyOp11
 70
     1
102
RTVSPropertyOp12
 70
     1
102
RTVSPropertyOp13
 70
     1
102
RTVSPropertyOp14
 70
     1
102
RTVSPropertyOp15
 70
     1
102
RTVSPropertyOp16
 70
     1
102
RTVSPropertyOp17
 70
     1
102
RTVSPropertyOp18
 70
     1
102
RTVSPropertyOp19
 70
     1
102
RTVSPropertyOp20
 70
     1
102
RTVSPropertyOp21
 70
     1
102
RTVSPropertyOp22
 70
     1
102
RTVSPropertyOp23
 70
     1
102
RTVSPropertyOp24
 70
     1
102
RTVSPropertyOp25
 70
     1
102
RTVSPropertyOp26
 70
     1
102
RTVSPropertyOp27
 70
     1
  0
XRECORD
  5
FEA
102
{ACAD_REACTORS
330
FE9
102
}
330
FE9
100
AcDbXrecord
280
     1
102
RTVSPropertyOp0
 70
     1
102
RTVSPropertyOp1
 70
     1
102
RTVSPropertyOp2
 70
     1
102
RTVSPropertyOp3
 70
     1
102
RTVSPropertyOp4
 70
     1
102
RTVSPropertyOp5
 70
     1
102
RTVSPropertyOp6
 70
     1
102
RTVSPropertyOp7
 70
     1
102
RTVSPropertyOp8
 70
     1
102
RTVSPropertyOp9
 70
     1
102
RTVSPropertyOp10
 70
     1
102
RTVSPropertyOp11
 70
     1
102
RTVSPropertyOp12
 70
     1
102
RTVSPropertyOp13
 70
     1
102
RTVSPropertyOp14
 70
     1
102
RTVSPropertyOp15
 70
     1
102
RTVSPropertyOp16
 70
     1
102
RTVSPropertyOp17
 70
     1
102
RTVSPropertyOp18
 70
     1
102
RTVSPropertyOp19
 70
     1
102
RTVSPropertyOp20
 70
     1
102
RTVSPropertyOp21
 70
     1
102
RTVSPropertyOp22
 70
     1
102
RTVSPropertyOp23
 70
     1
102
RTVSPropertyOp24
 70
     1
102
RTVSPropertyOp25
 70
     1
102
RTVSPropertyOp26
 70
     1
102
RTVSPropertyOp27
 70
     1
  0
XRECORD
  5
1004
102
{ACAD_REACTORS
330
1003
102
}
330
1003
100
AcDbXrecord
280
     1
102
RTVSPropertyOp0
 70
     0
102
RTVSPropertyOp1
 70
     0
102
RTVSPropertyOp2
 70
     0
102
RTVSPropertyOp3
 70
     0
102
RTVSPropertyOp4
 70
     0
102
RTVSPropertyOp5
 70
     0
102
RTVSPropertyOp6
 70
     0
102
RTVSPropertyOp7
 70
     0
102
RTVSPropertyOp8
 70
     0
102
RTVSPropertyOp9
 70
     0
102
RTVSPropertyOp10
 70
     0
102
RTVSPropertyOp11
 70
     0
102
RTVSPropertyOp12
 70
     0
102
RTVSPropertyOp13
 70
     0
102
RTVSPropertyOp14
 70
     2
102
RTVSPropertyOp15
 70
     0
102
RTVSPropertyOp16
 70
     0
102
RTVSPropertyOp17
 70
     0
102
RTVSPropertyOp18
 70
     0
102
RTVSPropertyOp19
 70
     0
102
RTVSPropertyOp20
 70
     0
102
RTVSPropertyOp21
 70
     0
102
RTVSPropertyOp22
 70
     0
102
RTVSPropertyOp23
 70
     0
102
RTVSPropertyOp24
 70
     0
102
RTVSPropertyOp25
 70
     0
102
RTVSPropertyOp26
 70
     0
102
RTVSPropertyOp27
 70
     0
  0
XRECORD
  5
FFE
102
{ACAD_REACTORS
330
FFD
102
}
330
FFD
100
AcDbXrecord
280
     1
102
RTVSPropertyOp0
 70
     1
102
RTVSPropertyOp1
 70
     1
102
RTVSPropertyOp2
 70
     1
102
RTVSPropertyOp3
 70
     1
102
RTVSPropertyOp4
 70
     1
102
RTVSPropertyOp5
 70
     1
102
RTVSPropertyOp6
 70
     1
102
RTVSPropertyOp7
 70
     1
102
RTVSPropertyOp8
 70
     1
102
RTVSPropertyOp9
 70
     1
102
RTVSPropertyOp10
 70
     1
102
RTVSPropertyOp11
 70
     1
102
RTVSPropertyOp12
 70
     1
102
RTVSPropertyOp13
 70
     1
102
RTVSPropertyOp14
 70
     1
102
RTVSPropertyOp15
 70
     1
102
RTVSPropertyOp16
 70
     1
102
RTVSPropertyOp17
 70
     1
102
RTVSPropertyOp18
 70
     1
102
RTVSPropertyOp19
 70
     1
102
RTVSPropertyOp20
 70
     1
102
RTVSPropertyOp21
 70
     1
102
RTVSPropertyOp22
 70
     1
102
RTVSPropertyOp23
 70
     1
102
RTVSPropertyOp24
 70
     1
102
RTVSPropertyOp25
 70
     1
102
RTVSPropertyOp26
 70
     1
102
RTVSPropertyOp27
 70
     1
  0
XRECORD
  5
1006
102
{ACAD_REACTORS
330
1005
102
}
330
1005
100
AcDbXrecord
280
     1
102
RTVSPropertyOp0
 70
     0
102
RTVSPropertyOp1
 70
     0
102
RTVSPropertyOp2
 70
     0
102
RTVSPropertyOp3
 70
     0
102
RTVSPropertyOp4
 70
     0
102
RTVSPropertyOp5
 70
     0
102
RTVSPropertyOp6
 70
     0
102
RTVSPropertyOp7
 70
     0
102
RTVSPropertyOp8
 70
     0
102
RTVSPropertyOp9
 70
     0
102
RTVSPropertyOp10
 70
     0
102
RTVSPropertyOp11
 70
     0
102
RTVSPropertyOp12
 70
     0
102
RTVSPropertyOp13
 70
     0
102
RTVSPropertyOp14
 70
     2
102
RTVSPropertyOp15
 70
     0
102
RTVSPropertyOp16
 70
     0
102
RTVSPropertyOp17
 70
     0
102
RTVSPropertyOp18
 70
     0
102
RTVSPropertyOp19
 70
     0
102
RTVSPropertyOp20
 70
     0
102
RTVSPropertyOp21
 70
     0
102
RTVSPropertyOp22
 70
     0
102
RTVSPropertyOp23
 70
     0
102
RTVSPropertyOp24
 70
     0
102
RTVSPropertyOp25
 70
     0
102
RTVSPropertyOp26
 70
     0
102
RTVSPropertyOp27
 70
     0
  0
XRECORD
  5
FF6
102
{ACAD_REACTORS
330
FF5
102
}
330
FF5
100
AcDbXrecord
280
     1
102
RTVSPropertyOp0
 70
     1
102
RTVSPropertyOp1
 70
     1
102
RTVSPropertyOp2
 70
     1
102
RTVSPropertyOp3
 70
     1
102
RTVSPropertyOp4
 70
     1
102
RTVSPropertyOp5
 70
     1
102
RTVSPropertyOp6
 70
     1
102
RTVSPropertyOp7
 70
     1
102
RTVSPropertyOp8
 70
     1
102
RTVSPropertyOp9
 70
     1
102
RTVSPropertyOp10
 70
     1
102
RTVSPropertyOp11
 70
     1
102
RTVSPropertyOp12
 70
     1
102
RTVSPropertyOp13
 70
     1
102
RTVSPropertyOp14
 70
     1
102
RTVSPropertyOp15
 70
     1
102
RTVSPropertyOp16
 70
     1
102
RTVSPropertyOp17
 70
     1
102
RTVSPropertyOp18
 70
     1
102
RTVSPropertyOp19
 70
     1
102
RTVSPropertyOp20
 70
     1
102
RTVSPropertyOp21
 70
     1
102
RTVSPropertyOp22
 70
     1
102
RTVSPropertyOp23
 70
     1
102
RTVSPropertyOp24
 70
     1
102
RTVSPropertyOp25
 70
     1
102
RTVSPropertyOp26
 70
     1
102
RTVSPropertyOp27
 70
     1
  0
XRECORD
  5
FFC
102
{ACAD_REACTORS
330
FFB
102
}
330
FFB
100
AcDbXrecord
280
     1
102
RTVSPropertyOp0
 70
     1
102
RTVSPropertyOp1
 70
     1
102
RTVSPropertyOp2
 70
     1
102
RTVSPropertyOp3
 70
     1
102
RTVSPropertyOp4
 70
     1
102
RTVSPropertyOp5
 70
     1
102
RTVSPropertyOp6
 70
     1
102
RTVSPropertyOp7
 70
     1
102
RTVSPropertyOp8
 70
     1
102
RTVSPropertyOp9
 70
     1
102
RTVSPropertyOp10
 70
     1
102
RTVSPropertyOp11
 70
     1
102
RTVSPropertyOp12
 70
     1
102
RTVSPropertyOp13
 70
     1
102
RTVSPropertyOp14
 70
     1
102
RTVSPropertyOp15
 70
     1
102
RTVSPropertyOp16
 70
     1
102
RTVSPropertyOp17
 70
     1
102
RTVSPropertyOp18
 70
     1
102
RTVSPropertyOp19
 70
     1
102
RTVSPropertyOp20
 70
     1
102
RTVSPropertyOp21
 70
     1
102
RTVSPropertyOp22
 70
     1
102
RTVSPropertyOp23
 70
     1
102
RTVSPropertyOp24
 70
     1
102
RTVSPropertyOp25
 70
     1
102
RTVSPropertyOp26
 70
     1
102
RTVSPropertyOp27
 70
     1
  0
ENDSEC
  0
EOF
